Торрент файл
скачать торрент магнет ссылка Добавлен: 30 дек 2013, 16:27
Размер: 1.95 ГБ
Сидеров: 33
Личеров: 7
Статус: (salma3)
Автор

СообщениеДобавлено: 30 дек 2013, 16:27 

Не в сети
Супермодератор
Аватара пользователя
Дата регистрации:
15 фев 2012, 16:44
Возраст: 27
Спасибо: 5121 / 2089
Сообщения: 17282
Шесть степеней отчуждения / Six Degrees of Separation

Год выхода: 1993
Жанр: Комедия, Мелодрама
Режиссер: Фрэд Скепси

В ролях: Стокард Ченнинг, Уилл Смит, Дональд Сазерленд, Хизер Грэм, Ян МакКеллен, Мэри Бет Херт, Брюс Дэвисон, Ричард Мазур, Энтони Майкл Холл, Эрик Тал др.

О фильме:
Уиза и Флэн, манхэттенские торговцы произведениями искусства, открывают двери своего роскошного пентхауcа Полу, обаятельному молодому человеку, раненому и ограбленному в Центральном парке. Заявив, что он - друг их сына и сын знаменитого актера Сидни Пуатье, Пол очаровывает их множеством пьянящих историй и мучительно `вкусных` подробностей.
Но когда сплетенная им паутина знаменитых имен начинает раскручиваться, он подкидывает хозяевам нечто посерьезнее обычного анекдота к светской вечеринке - он дает ход целой череде событий, которые навсегда изменят их жизнь...



Страна: США
Продолжительность: 01:47:18
Перевод1 Любительский (одноголосый закадровый) [Ю. Сербин]
Перевод2 Профессиональный (двухголосый закадровый) [НТВ+]

Файл
Качество: DVDRip-AVC
Формат файла: AVC
Видео кодек: h.264
Аудио кодек: AC3
Видео: 720x432 (2.35:1) @ 1020x432 (анаморф), 25.000 fps, AVC, ~1503 Kbps, 0.193 bits/pixel
Аудио1 Русский, 48.0 KHz, AC3, 6 ch, 448 Kbps [Сербин]
Аудио2 Русский, 48.0 KHz, AC3, 2 ch, 192 Kbps [HTB+]
Аудио3 Английский, 48.0 KHz, AC3, 6 ch, 448 Kbps [Оригинал]
Субтитры: Английские, VobSub


Общее
Уникальный идентификатор : 246499582336718321358673855249634173230 (0xB97217BA8A38245ABC8BAAF54AF2212E)
Полное имя : D:Films6_Stepeney_Otchuzhdeniya.1993.DVDRip-AVC.mkv
Формат : Matroska
Версия формата : Version 4 / Version 2
Размер файла : 1,95 Гбайт
Продолжительность : 1 ч. 47 м.
Общий поток : 2596 Кбит/сек
Дата кодирования : UTC 2013-12-30 07:40:12
Программа кодирования : mkvmerge v6.6.0 ('The Edge Of The In Between') built on Dec 1 2013 17:55:00
Библиотека кодирования : libebml v1.3.0 + libmatroska v1.4.1

Видео
Идентификатор : 1
Формат : AVC
Формат/Информация : Advanced Video Codec
Профиль формата : High@L4.1
Параметр CABAC формата : Да
Параметр ReFrames формата : 16 кадров
Идентификатор кодека : V_MPEG4/ISO/AVC
Продолжительность : 1 ч. 47 м.
Битрейт : 1503 Кбит/сек
Ширина : 720 пикселей
Высота : 432 пикселя
Соотношение сторон : 2,35:1
Режим частоты кадров : Постоянный
Частота кадров : 25,000 кадров/сек
Цветовое пространство : YUV
Субдискретизация насыщенности : 4:2:0
Битовая глубина : 8 бит
Тип развёртки : Прогрессивная
Бит/(Пиксели*Кадры) : 0.193
Размер потока : 1,09 Гбайт (56%)
Библиотека кодирования : x264 core 138 r2358 9e941d1
Настройки программы : cabac=1 / ref=16 / deblock=1:0:0 / analyse=0x3:0x133 / me=umh / subme=10 / psy=1 / psy_rd=1.05:0.10 / mixed_ref=1 / me_range=32 / chroma_me=1 / trellis=2 / 8x8dct=1 / cqm=0 / deadzone=21,11 / fast_pskip=0 / chroma_qp_offset=-3 / threads=8 / lookahead_threads=2 / sliced_threads=0 / nr=0 / decimate=0 / interlaced=0 / bluray_compat=0 / constrained_intra=0 / bframes=14 / b_pyramid=2 / b_adapt=2 / b_bias=0 / direct=3 / weightb=1 / open_gop=0 / weightp=2 / keyint=250 / keyint_min=25 / scenecut=40 / intra_refresh=0 / rc_lookahead=60 / rc=2pass / mbtree=0 / bitrate=1503 / ratetol=1.0 / qcomp=0.60 / qpmin=0 / qpmax=60 / qpstep=4 / cplxblur=20.0 / qblur=0.5 / vbv_maxrate=50000 / vbv_bufsize=62500 / nal_hrd=none / ip_ratio=1.40 / pb_ratio=1.30 / aq=1:1.00
Default : Нет
Forced : Нет
Коэффициенты матрицы : BT.601

Аудио #1
Идентификатор : 2
Формат : AC-3
Формат/Информация : Audio Coding 3
Расширение режима : CM (complete main)
Параметр Endianness формата : Big
Идентификатор кодека : A_AC3
Продолжительность : 1 ч. 47 м.
Вид битрейта : Постоянный
Битрейт : 448 Кбит/сек
Каналы : 6 каналов
Расположение каналов : Front: L C R, Side: L R, LFE
Частота : 48,0 КГц
Битовая глубина : 16 бит
Метод сжатия : С потерями
Размер потока : 344 Мбайт (17%)
Заголовок : Original
Язык : English
Default : Нет
Forced : Нет

Аудио #2
Идентификатор : 3
Формат : AC-3
Формат/Информация : Audio Coding 3
Расширение режима : CM (complete main)
Параметр Endianness формата : Big
Идентификатор кодека : A_AC3
Продолжительность : 1 ч. 47 м.
Вид битрейта : Постоянный
Битрейт : 448 Кбит/сек
Каналы : 6 каналов
Расположение каналов : Front: L C R, Side: L R, LFE
Частота : 48,0 КГц
Битовая глубина : 16 бит
Метод сжатия : С потерями
Задержка видео : 13 мс.
Размер потока : 344 Мбайт (17%)
Заголовок : Serbin
Язык : Russian
Default : Нет
Forced : Нет

Аудио #3
Идентификатор : 4
Формат : AC-3
Формат/Информация : Audio Coding 3
Расширение режима : CM (complete main)
Параметр Endianness формата : Big
Идентификатор кодека : A_AC3
Продолжительность : 1 ч. 47 м.
Вид битрейта : Постоянный
Битрейт : 192 Кбит/сек
Каналы : 2 канала
Расположение каналов : Front: L R
Частота : 48,0 КГц
Битовая глубина : 16 бит
Метод сжатия : С потерями
Размер потока : 147 Мбайт (7%)
Заголовок : HTB+
Язык : Russian
Default : Да
Forced : Нет

Текст
Идентификатор : 5
Формат : VobSub
Режим смешивания : zlib
Идентификатор кодека : S_VOBSUB
Идентификатор кодека/Информация : The same subtitle format used on DVDs
Заголовок : Original from DVD
Язык : English
Default : Нет
Forced : Нет

Меню
00:00:00.000 : en:Chapter 01
00:12:14.400 : en:Chapter 02
00:24:10.440 : en:Chapter 03
00:31:02.760 : en:Chapter 04
00:37:42.800 : en:Chapter 05
00:45:18.160 : en:Chapter 06
00:47:37.800 : en:Chapter 07
00:51:52.800 : en:Chapter 08
00:54:16.960 : en:Chapter 09
00:58:50.560 : en:Chapter 10
01:04:41.880 : en:Chapter 11
01:06:32.200 : en:Chapter 12
01:21:37.080 : en:Chapter 13
01:24:35.920 : en:Chapter 14
01:36:30.680 : en:Chapter 15
01:39:06.320 : en:Chapter 16
01:43:25.320 : en:Chapter 17

Релиз от: Temperest


_________________



реклама партнёра


Вернуться к началу
 Профиль Отправить личное сообщение  
 
   Похожие торренты   Автор   Торрент   Размер 
В этой теме нет новых непрочитанных сообщений. Шесть степеней отчуждения / Six Degrees of Separation [Драма, комедия, детектив, экранизация, 1993] HDTV 1080i, Dvo [НТВ +]

salma3

28 | 5

4.27 ГБ

В этой теме нет новых непрочитанных сообщений. Шесть дней, шесть ночей / À la folie [драма, 1994] DVDRip, Avo+Sub

salma3

52 | 6

699.65 МБ

В этой теме нет новых непрочитанных сообщений. Полоса отчуждения [01-08 из 08] [Мелодрама, 2014] HDTV 1080i

Dracon

14 | 7

20.33 ГБ

В этой теме нет новых непрочитанных сообщений. Полоса отчуждения [серии 1-8 из 8] [Мелодрама, 2014] SATRip

Dracon

4 | 2

3.92 ГБ

В этой теме нет новых непрочитанных сообщений. Полоса отчуждения [01-08 из 08] (Сергей Лялин) [2014, Мелодрама, HDTVRip 720]

Nickolas3435

47 | 23

12.43 ГБ

В этой теме нет новых непрочитанных сообщений. Шесть дней, семь ночей / Six Days Seven Nights [боевик, мелодрама, комедия, приключения, 1998] WEB-DL 720p, Dub

salma3

72 | 14

3.27 ГБ

В этой теме нет новых непрочитанных сообщений. Шесть дней, семь ночей / Six Days Seven Nights [Мелодрама, Комедия, Боевик, Приключения, 1998] HDRip 1080p, Dub+Sub

salma3

0 | 0

4.37 ГБ


Начать новую тему Ответить на тему  [ 1 сообщение ] 




Для Мосгорсуда, Роскомнадзора и рекламодателей:: mosgorsud-torrent[собачка]yandex.ru