Торрент файл
скачать торрент магнет ссылка Добавлен: 30 дек 2013, 15:43
Размер: 744.82 МБ
Сидеров: 20
Личеров: 2
Статус: (salma3)
Автор

СообщениеДобавлено: 30 дек 2013, 15:43 

Не в сети
Супермодератор
Аватара пользователя
Дата регистрации:
15 фев 2012, 16:44
Возраст: 27
Спасибо: 5130 / 2089
Сообщения: 17372
Прожить жизнь с Пикассо / Surviving Picasso

Год выхода: 1996
Жанр: драма, мелодрама, биография
Режиссер: Джеймс Айвори / James Ivory

В ролях: Энтони Хопкинс, Наташа МакЭлхоун, Джулианна Мур, Джосс Экленд, Деннис Буцикарис, Питер Айр, Питер Герети, Сюзанна Харкер, Джейн Лапотэйр, Джозеф Маэр

О фильме:
Холст, краски, металл, керамика. Они были послушны воле этого выдающегося художника XX века. Но что известно о другой великой страсти легендарного Пабло Пикассо? Была ли любовь также подчинена его гению?



Страна: США
Продолжительность: 02:00:16
Перевод: Профессиональный (дублированный)

Файл
Качество: DVDRip
Формат файла: AVI
Видео кодек: XviD
Аудио кодек: MP3
Видео: XviD, 640x368 (16:9), 25.000 fps, 730 Kbps (0.124 bit/pixel)
Звук: MP3, 48.0 KHz, 2 ch, 128 Kbps, CBR


General
Complete name : /Surviving.Picasso_DVDRip.Rus.DUB.745.avi
Format : AVI
Format/Info : Audio Video Interleave
File size : 745 MiB
Duration : 2h 0mn
Overall bit rate : 866 Kbps
Writing application : VirtualDubMod 1.5.4.1 (build 2178/release)
Writing library : VirtualDubMod build 2178/release

Video
ID : 0
Format : MPEG-4 Visual
Format profile : Advanced Simple@L5
Format settings, BVOP : 1
Format settings, QPel : No
Format settings, GMC : No warppoints
Format settings, Matrix : Custom
Codec ID : XVID
Codec ID/Hint : XviD
Duration : 2h 0mn
Bit rate : 730 Kbps
Width : 640 pixels
Height : 368 pixels
Display aspect ratio : 1.739
Frame rate : 25.000 fps
Color space : YUV
Chroma subsampling : 4:2:0
Bit depth : 8 bits
Scan type : Progressive
Compression mode : Lossy
Bits/(Pixel*Frame) : 0.124
Stream size : 628 MiB (84%)
Writing library : XviD 65

Audio
ID : 1
Format : MPEG Audio
Format version : Version 1
Format profile : Layer 3
Mode : Joint stereo
Mode extension : MS Stereo
Codec ID : 55
Codec ID/Hint : MP3
Duration : 2h 0mn
Bit rate mode : Constant
Bit rate : 128 Kbps
Channel(s) : 2 channels
Sampling rate : 48.0 KHz
Compression mode : Lossy
Stream size : 110 MiB (15%)
Alignment : Aligned on interleaves
Interleave, duration : 80 ms (2.00 video frames)
Interleave, preload duration : 504 ms
Writing library : LAME3.99r
Encoding settings : -m j -V 4 -q 2 -lowpass 17 -b 128
Language : Russian


_________________



реклама партнёра


Вернуться к началу
 Профиль Отправить личное сообщение  
 
   Похожие торренты   Автор   Торрент   Размер 
В этой теме нет новых непрочитанных сообщений. Непридуманная жизнь [01-16 из 16] (Фуад Шабанов) [Мелодрама, драма, биография, 2015] HDTV 720p

Dracon

270 | 105

24.89 ГБ

В этой теме нет новых непрочитанных сообщений. Непридуманная жизнь [01-16 из 16] (Фуад Шабанов) [Мелодрама, драма, биография, 2015] HDTV 1080i

Dracon

136 | 81

42.88 ГБ

В этой теме нет новых непрочитанных сообщений. Непридуманная жизнь (Екатерина) [01-16 из 16] (Фуад Шабанов) [Мелодрама, драма, биография, 2015] HDTVRip

Dracon

259 | 63

8.59 ГБ

В этой теме нет новых непрочитанных сообщений. Блеск / Shine [драма, мелодрама, биография, музыка, 1996] BDRemux, Dvo+Avo+Sub

salma3

5 | 3

23.1 ГБ

В этой теме нет новых непрочитанных сообщений. Баския / Basquia [драма, биография, 1996] DVDRip, Dvo

salma3

50 | 3

1.37 ГБ

В этой теме нет новых непрочитанных сообщений. Дикая жизнь / Das wilde Leben [драма, комедия, биография, музыка, 2007] DVDRip, Avo

salma3

32 | 2

1.46 ГБ

В этой теме нет новых непрочитанных сообщений. Норма Джин и Мэрилин / Norma Jean & Marilyn [Драма, биография, 1996] DVDRip, Dvo [НТВ+]

salma3

28 | 4

1.45 ГБ


Начать новую тему Ответить на тему  [ 1 сообщение ] 




Для Мосгорсуда, Роскомнадзора и рекламодателей:: mosgorsud-torrent[собачка]yandex.ru