Торрент файл
скачать торрент магнет ссылка Добавлен: 29 дек 2013, 20:48
Размер: 1.46 ГБ
Сидеров: 98
Личеров: 7
Статус: (salma3)
Автор

СообщениеДобавлено: 29 дек 2013, 20:48 

Не в сети
Супермодератор
Аватара пользователя
Дата регистрации:
15 фев 2012, 16:44
Возраст: 27
Спасибо: 5143 / 2090
Сообщения: 17497
Красивая жизнь / Как разобраться с делами / Taking Care of Business

Год выхода: 1990
Жанр: комедия
Режиссер: Артур Хиллер / Arthur Hiller

В ролях: Джеймс Белуши, Чарльз Гродин, Энн Де Сальво, Лорин Локлин, Стивен Эллиот, Гектор Элизондо, Вероника Хамель, Мако, Гейтс МакФэдден, Джон де Ланси, Кен Фори, Крис Барнс, Джилл Джонсон, Том Нолан, Сэльма Арчерд, Джанет Джулиан

О фильме:
Что может означать для преуспевающего бизнесмена потеря органайзера со всеми кредитными карточками, наличными деньгами и ключами от особняка в Малибу? Именно это предстоит выяснить Спенсеру Барнсу, преуспевающему рекламному менеджеру.
Но настоящие неприятности для него начинаются тогда, когда его органайзер попадает в руки сбежавшего из тюрьмы Джимми Дворски, который проводит больше времени в заключении, чем на свободе. С этого момента жизнь обоих настолько круто меняется, что дух захватывает.



Страна: США
Продолжительность: 01:48:02
Перевод: Профессиональный (многоголосый закадровый) ["ОРТ"]

Файл
Качество: WEB-DLRip
Формат файла: AVI
Видео кодек: XviD
Аудио кодек: AC3
Видео: 720 x 400, 23,976 kbps, 1732 kbps
Звук: AC3, 2.0 ch, 192 kbps, 48 kHz


Общее
Полное имя : Красивая жизнь 1990.WEB-DLRip.avi
Формат : AVI
Формат/Информация : Audio Video Interleave
Размер файла : 1,46 Гбайт
Продолжительность : 1 ч. 48 м.
Общий поток : 1933 Кбит/сек
Программа кодирования : VirtualDubMod 1.5.10.2 (build 2542/release)
Библиотека кодирования : VirtualDubMod build 2542/release

Видео
Идентификатор : 0
Формат : MPEG-4 Visual
Профиль формата : Advanced Simple@L5
Параметр BVOP формата : 2
Параметр QPel формата : Нет
Параметр GMC формата : Без точки перехода
Параметр матрицы формата : Выборочная
Идентификатор кодека : XVID
Идентификатор кодека/Подсказка : XviD
Продолжительность : 1 ч. 48 м.
Битрейт : 1732 Кбит/сек
Ширина : 720 пикс.
Высота : 400 пикс.
Соотношение сторон : 16:9
Частота кадров : 23,976 кадр/сек
Цветовое пространство : YUV
Подвыборка цветности : 4:2:0
Битовая глубина : 8 бит
Тип развёртки : Прогрессивная
Метод сжатия : С потерями
Бит/(Пиксели*Кадры) : 0.251
Размер потока : 1,31 Гбайт (90%)
Библиотека кодирования : XviD 73

Аудио
Идентификатор : 1
Формат : AC-3
Формат/Информация : Audio Coding 3
Расширение режима : CM (complete main)
Идентификатор кодека : 2000
Продолжительность : 1 ч. 48 м.
Вид битрейта : Постоянный
Битрейт : 192 Кбит/сек
Канал(ы) : 2 канала(ов)
Расположение каналов : Front: L R
Частота : 48,0 КГц
Битовая глубина : 16 бит
Метод сжатия : С потерями
Размер потока : 148 Мбайт (10%)
Выравнивание : Разделение по промежуткам
Продолжительность промежутка : 42 мс. (1,00 видеокадр)
Время предзагрузки промежутка : 500 ms


Релиз от: Leon-masl


_________________



реклама партнёра


Вернуться к началу
 Профиль Отправить личное сообщение  
 
   Похожие торренты   Автор   Торрент   Размер 
В этой теме нет новых непрочитанных сообщений. Красивая жизнь / Taking Care of Business [комедия, 1990] WEB-DL 720p, Mvo+Dub+2Avo

salma3

22 | 5

3.84 ГБ

В этой теме нет новых непрочитанных сообщений. Красивая жизнь [01-20 из 20] [мелодрама, 2014] SATRip

Dracon

296 | 55

11.67 ГБ

В этой теме нет новых непрочитанных сообщений. Красивая жизнь [01-20 из 20] [мелодрама, 2014] HDTVRip

Dracon

2015 | 562

10.75 ГБ

В этой теме нет новых непрочитанных сообщений. Красивая жизнь [01-20 из 20] [Мелодрама, 2014] HDTV 1080i

Dracon

62 | 32

52 ГБ

В этой теме нет новых непрочитанных сообщений. Дело фирмы / Company Business [триллер, драма, боевик, 1990] DVDRip, Mvo

salma3

20 | 3

1.46 ГБ

В этой теме нет новых непрочитанных сообщений. Красивая жизнь / La belle vie (Жан Денизо / Jean Denizot) [2013г., Франция, приключенческая драма, мелодрама, DVB] Sub

Alfredovich

5 | 2

2.34 ГБ

В этой теме нет новых непрочитанных сообщений. Taking Dawn - Time To Burn, Taking Dawn [2009,Hard rock, Heavy metal,MP3]

PriZraK

0 | 2

108.56 МБ


Начать новую тему Ответить на тему  [ 1 сообщение ] 




Для Мосгорсуда, Роскомнадзора и рекламодателей:: mosgorsud-torrent[собачка]yandex.ru