Торрент файл
скачать торрент магнет ссылка Добавлен: 29 дек 2013, 14:35
Размер: 1.36 ГБ
Сидеров: 201
Личеров: 15
Статус: (salma3)
Автор

СообщениеДобавлено: 29 дек 2013, 14:35 

Не в сети
Супермодератор
Аватара пользователя
Дата регистрации:
15 фев 2012, 16:44
Возраст: 28
Спасибо: 6577 / 2143
Сообщения: 43865
Ограбление века / Святая вода / Holy Water

Год выпуска: 2009
Жанр: Комедия
Режиссер: Том Рив

В ролях: Джон Линч, Корнелиус Кларк, Лохлэйнн О’Меарайн, Киэн Бэрри, Сьюзэн Линч. Дирдри Маллинз, Линда Хэмилтон, Том ’Тайни’ Листер мл., Стэнли Таунсенд, Анджелин Болл

Описание: Однажды в английской глубинке местный почтальон уговорил своих приятелей украсть грузовик виагры и затем продать его в Амстердаме на черном рынке. Сказано-сделано. После подготовки ограбление прошло без сучка и задоринки. Правда оказалось, что бочки с таблетками оборудованы радиомаяками, и теперь по следу горе-воришек идет служба безопасности фармацевтической компании.



Страна: Великобритания
Продолжительность: 01:29:30
Перевод: Профессиональный [многоголосый]

Файл
Качество: DVDRip
Формат файла: AVI
Видео кодек: XviD
Аудио кодек: AC3
Видео: 704x384 (1.83:1), 25 fps, XviD ~1720 kbps avg, 0.25 bit/pixel
Аудио: 48 kHz, AC3 6.0 ~448.00 kbps avg


Общее
Полное имя : D:1АААОграбление века.avi
Формат : AVI
Формат/Информация : Audio Video Interleave
Размер файла : 1,36 Гбайт
Продолжительность : 1 ч. 29 м.
Общий поток : 2178 Кбит/сек
Программа кодирования : VirtualDubMod 1.5.10.2 (build 2540/release)
Библиотека кодирования : VirtualDubMod build 2540/release

Видео
Идентификатор : 0
Формат : MPEG-4 Visual
Профиль формата : Advanced Simple@L5
Параметр BVOP формата : 1
Параметр QPel формата : Нет
Параметр GMC формата : Без точки перехода
Параметр матрицы формата : Default (H.263)
Идентификатор кодека : XVID
Идентификатор кодека/Подсказка : XviD
Продолжительность : 1 ч. 29 м.
Битрейт : 1721 Кбит/сек
Ширина : 704 пикселя
Высота : 384 пикселя
Соотношение сторон : 1,885
Частота кадров : 25,000 кадров/сек
Цветовое пространство : YUV
Субдискретизация насыщенности : 4:2:0
Битовая глубина : 8 бит
Тип развёртки : Прогрессивная
Метод сжатия : С потерями
Бит/(Пиксели*Кадры) : 0.255
Размер потока : 1,08 Гбайт (79%)
Библиотека кодирования : XviD 1.2.0.dev47 (UTC 2006-11-01)

Аудио
Идентификатор : 1
Формат : AC-3
Формат/Информация : Audio Coding 3
Расширение режима : CM (complete main)
Параметр Endianness формата : Big
Идентификатор кодека : 2000
Продолжительность : 1 ч. 29 м.
Вид битрейта : Постоянный
Битрейт : 448 Кбит/сек
Каналы : 6 каналов
Расположение каналов : Front: L C R, Side: L R, LFE
Частота : 48,0 КГц
Битовая глубина : 16 бит
Метод сжатия : С потерями
Задержка видео : 1 с. 0 мс.
Размер потока : 287 Мбайт (21%)
Выравнивание : Разделение по промежуткам
Продолжительность промежутка : 40 мс. (1,00 видеокадр)
Время предзагрузки промежутка : 500 мс.








Релиз группа:Автор рипа:


_________________
Проголосуй за трекер Открытый торрент трекер - RUS-MEDIA.ORG

Проголосуй Открытый торрент трекер - RUS-MEDIA.ORG



реклама партнёра


Вернуться к началу
 Профиль Отправить личное сообщение  
 
   Похожие торренты   Автор   Торрент   Размер 
В этой теме нет новых непрочитанных сообщений. Мертвая вода / Red Water [ужасы, триллер, 2008] DVDRip, Mvo

salma3

80 | 10

1.45 ГБ

В этой теме нет новых непрочитанных сообщений. Тёмная вода / Dark Water [ужасы, триллер, драма, 2005] HDRip, Dub

salma3

136 | 12

1.45 ГБ

В этой теме нет новых непрочитанных сообщений. Падающая вода / Falling Water [S01] [Драма, мистика, фэнтэзи, 2016] WEB-DLRip, Mvo [Кравец]

salma3

371 | 283

3.82 ГБ

В этой теме нет новых непрочитанных сообщений. Падающая вода / Falling Water [S01] [Драма, мистика, фэнтэзи, 2016] WEB-DLRip 720p, Mvo [Кравец]

salma3

106 | 116

9.61 ГБ

В этой теме нет новых непрочитанных сообщений. Падающая вода / Falling Water [S01] [Драма, мистика, фэнтэзи, 2016] WEB-DLRip 1080p, Mvo [Кравец]

salma3

16 | 34

16.45 ГБ

В этой теме нет новых непрочитанных сообщений. Падающая вода / Falling water [01x01-08 из 10] (Драма, мистика, фэнтэзи, 2016) WEB-DLRip 720p | IdeaFilm

marya111

14 | 14

11.74 ГБ

В этой теме нет новых непрочитанных сообщений. Падающая вода / Falling Water [01x01 из 08] [Фантастика, триллер, драма, детектив, 2016] WEB-DLRip, Mvo [NewStudio]

marya111

122 | 7

700.3 МБ


Начать новую тему Ответить на тему  [ 1 сообщение ] 




Для Мосгорсуда, Роскомнадзора и рекламодателей:: mosgorsud-torrent[собачка]yandex.ru