Торрент файл
скачать торрент магнет ссылка Добавлен: 26 дек 2013, 15:21
Размер: 1.24 ГБ
Сидеров: 53
Личеров: 2
Статус: (salma3)
Автор

СообщениеДобавлено: 26 дек 2013, 15:21 

Не в сети
Супермодератор
Аватара пользователя
Дата регистрации:
15 фев 2012, 16:44
Возраст: 27
Спасибо: 5135 / 2089
Сообщения: 17406
Шоу начинается / Showtime

Год выпуска: 2002
Жанр: боевик, комедия, криминал
Режиссер: Том Дей

В ролях: Роберт де Ниро, Эдди Мерфи, Рене Руссо, Фрэнки Фэйзон, Уильям Шэтнер, Нестор Серрано, Дрена Де Ниро

Описание: Детектив Митч Престон, вот уже двадцать лет служит в департаменте полиции Лос-Анджелеса. Он не отличается терпением и многословием. Всё, что ему нужно, это чтобы его оставили в покое и дали спокойно заниматься своей работой. А патрульный офицер Трей Селларз с большим удовольствием изображал бы полицейского на экране, нежели выполнял его прямые обязанности в реальной жизни. Когда однажды Селларз мешает Престону выполнить секретное задание, да еще в это время их снимает один из репортеров телевизионной новостной программы, Престон от злости стреляет в снимающую его камеру. Этот случай не мог не остаться незамеченным, а из-за своего импульсивного поведения Митч попадает в поле зрения продюсера Чейзы Рензи. Имея нюх на потенциально успешные предприятия, Чейз решает пригласить совершенно лишенного обаяния Престона и разговорчивого, телегеничного Селларза для съемок в своем шоу. Это телешоу будет показывать реальные события, происходящие с двумя полицейскими на работе. Несмотря на то, что Пресотон сначала абсолютно не хочет сниматься в шоу, да еще с таким напарником, как Селларз, вскоре все же оба они появляются на телевизионных экранах. Для Митча - это ад на земле. Для Трея - мечта, ставшая реальностью...



Страна: США
Продолжительность: 01:35:22
Перевод: Профессиональный (полное дублирование)

Файл
Качество: HDRip-AVC
Формат файла: MKV
Видео кодек: H.264
Аудио кодек: AC3
Видео: 960x540 (4:2:0), 23.976 fps, AVC (x264) High@L4.1, 1 376 kbps, 0.111 bit/pixel
Аудио #1: Русский: 48 kHz, AC3, 6 ch (Front: L C R, Side: L R, LFE), 320 Kbps [полное дублирование]
Аудио #2: Английский: 48 kHz, AC3 Dolby Digital, 2/0 (L,R) ch, 160 Kbps [оригинал]


General
Unique ID : 225539942425535939322335350240541260377 (0xA9AD69B2532969A48935B2D29A75BA59)
Complete name : J:\Шоу начинается.mkv
Format : Matroska
Format version : Version 4 / Version 2
File size : 1.24 GiB
Duration : 1h 35mn
Overall bit rate : 1 858 Kbps
Movie name : Релиз MaxLuck
Encoded date : UTC 2013-12-26 03:16:37
Writing application : mkvmerge v6.0.0 ('Coming Up For Air') built on Jan 20 2013 09:52:00
Writing library : libebml v1.3.0 + libmatroska v1.4.0

Video
ID : 1
Format : AVC
Format/Info : Advanced Video Codec
Format profile : High@L4.1
Format settings, CABAC : Yes
Format settings, ReFrames : 12 frames
Codec ID : V_MPEG4/ISO/AVC
Duration : 1h 35mn
Bit rate : 1 376 Kbps
Width : 960 pixels
Height : 540 pixels
Display aspect ratio : 16:9
Frame rate mode : Constant
Frame rate : 23.976 fps
Color space : YUV
Chroma subsampling : 4:2:0
Bit depth : 8 bits
Scan type : Progressive
Bits/(Pixel*Frame) : 0.111
Stream size : 914 MiB (72%)
Title : Шоу начинается
Writing library : x264 core 129 r2245 bc13772
Encoding settings : cabac=1 / ref=12 / deblock=1:-3:-3 / analyse=0x3:0x133 / me=umh / subme=10 / psy=1 / psy_rd=1.22:0.04 / mixed_ref=1 / me_range=32 / chroma_me=1 / trellis=2 / 8x8dct=1 / cqm=0 / deadzone=21,11 / fast_pskip=0 / chroma_qp_offset=-3 / threads=14 / lookahead_threads=2 / sliced_threads=0 / nr=0 / decimate=1 / interlaced=0 / bluray_compat=0 / constrained_intra=0 / bframes=11 / b_pyramid=2 / b_adapt=1 / b_bias=0 / direct=3 / weightb=1 / open_gop=0 / weightp=2 / keyint=240 / keyint_min=22 / scenecut=40 / intra_refresh=0 / rc_lookahead=40 / rc=2pass / mbtree=1 / bitrate=1376 / ratetol=1.0 / qcomp=0.60 / qpmin=10 / qpmax=69 / qpstep=4 / cplxblur=20.0 / qblur=0.5 / ip_ratio=1.40 / aq=1:1.00
Default : Yes
Forced : No

Audio #1
ID : 2
Format : AC-3
Format/Info : Audio Coding 3
Mode extension : CM (complete main)
Format settings, Endianness : Big
Codec ID : A_AC3
Duration : 1h 35mn
Bit rate mode : Constant
Bit rate : 320 Kbps
Channel(s) : 6 channels
Channel positions : Front: L C R, Side: L R, LFE
Sampling rate : 48.0 KHz
Bit depth : 16 bits
Compression mode : Lossy
Stream size : 218 MiB (17%)
Title : Дубляж
Language : Russian
Default : Yes
Forced : No

Audio #2
ID : 3
Format : AC-3
Format/Info : Audio Coding 3
Mode extension : CM (complete main)
Format settings, Endianness : Big
Codec ID : A_AC3
Duration : 1h 35mn
Bit rate mode : Constant
Bit rate : 160 Kbps
Channel(s) : 2 channels
Channel positions : Front: L R
Sampling rate : 48.0 KHz
Bit depth : 16 bits
Compression mode : Lossy
Stream size : 109 MiB (9%)
Title : Оригинал
Language : English
Default : No
Forced : No










_________________



реклама партнёра


Вернуться к началу
 Профиль Отправить личное сообщение  
 
   Похожие торренты   Автор   Торрент   Размер 
В этой теме нет новых непрочитанных сообщений. Дави на газ! / Gamle mænd i nye biler [боевик, комедия, криминал, 2002] HDRip, Dvo

salma3

36 | 4

1.36 ГБ

В этой теме нет новых непрочитанных сообщений. Праздник начинается / Kacheri Aarambam [боевик, комедия, мелодрама, 2010] DVDRip, Mvo+Sub

salma3

22 | 2

1.46 ГБ

В этой теме нет новых непрочитанных сообщений. Чикаго / Chicago [мюзикл, криминал, комедия, 2002] HDRip, Dub

salma3

103 | 12

1.45 ГБ

В этой теме нет новых непрочитанных сообщений. Все о Бенджаминах / All About the Benjamins [боевик, триллер, комедия, криминал, 2002] WEB-DL 720p, Mvo+Sub

salma3

4 | 3

3.35 ГБ

В этой теме нет новых непрочитанных сообщений. Бей в голову / Kick to the Head [Боевик, комедия, криминал, 2002] DVDRip, Mvo

salma3

2 | 2

1.48 ГБ

В этой теме нет новых непрочитанных сообщений. Дикие Ангелы / Wilde Engel [боевик, комедия, криминал, 2002] DVDRip, Dvo [лицензия]

salma3

14 | 5

1.46 ГБ

В этой теме нет новых непрочитанных сообщений. Дави на газ! / Gamle mænd i nye biler [Боевик, комедия, криминал, 2002] ВDRemux 1080p, Dvo

salma3

33 | 11

17.87 ГБ


Начать новую тему Ответить на тему  [ 1 сообщение ] 




Для Мосгорсуда, Роскомнадзора и рекламодателей:: mosgorsud-torrent[собачка]yandex.ru