Торрент файл
скачать торрент магнет ссылка Добавлен: 25 дек 2013, 18:30
Размер: 1.52 ГБ
Сидеров: 20
Личеров: 3
Автор

СообщениеДобавлено: 25 дек 2013, 18:30 

Не в сети
Супермодератор
Аватара пользователя
Дата регистрации:
15 фев 2012, 16:44
Возраст: 27
Спасибо: 5139 / 2089
Сообщения: 17423
Милая ложь / Sweet Lies

Год выхода: 1988
Жанр: Мелодрама, комедия
Режиссер: Натали Делон

В ролях: Трит Уильямс, Джоанна Пакула, Джулианна Филлипс, Laura Manszky, Норберт Вайссер, Мэрлин Доддс Фрэнк, Айна Валле, Жизель Казадезю, Бернар Фрессон, Franck Tiozzo

О фильме:
Агент страховой компании приезжает в командировку в Париж и неожиданно оказывается в центре внимания трех незамужних женщин. Они поспорили, кто соблазнит его первым, но через некоторое время дамы поняли, что любят его…



Страна: Франция, США
Продолжительность: 01:32:16
Перевод: Профессиональный [двухголосый] [НТВ+]

Файл
Кодек: MPEG-4 AVC
Качество: HDTVRip (AVC)
Видео: 1980 Кбит/с, 1024x576, 25.000 кадр/с
Звук:
Аудио #1: Русский (АС3, 2 ch, 192 Кбит/с)
Аудио #2: Английский (AC3, 2 ch, 192 Кбит/с)

Семпл

Общее
Полное имя : Milaja.lozh.1988.x264.HDTVRip(AVC).MediaClub.mkv
Формат : Matroska
Версия формата : Version 2
Размер файла : 1,52 Гбайт
Продолжительность : 1 ч. 32 м.
Общий поток : 2366 Кбит/сек
Дата кодирования : UTC 2013-12-25 13:50:16
Программа кодирования : mkvmerge v5.4.0 ('Piper') built on Mar 10 2012 13:34:39
Библиотека кодирования : libebml v1.2.3 + libmatroska v1.3.0

Видео
Идентификатор : 1
Формат : AVC
Формат/Информация : Advanced Video Codec
Профиль формата : High@L4.1
Параметр CABAC формата : Да
Параметр ReFrames формата : 9 кадров
Идентификатор кодека : V_MPEG4/ISO/AVC
Продолжительность : 1 ч. 32 м.
Битрейт : 1980 Кбит/сек
Ширина : 1024 пикселя
Высота : 576 пикселей
Соотношение сторон : 16:9
Режим частоты кадров : Постоянный
Частота кадров : 25,000 кадров/сек
Цветовое пространство : YUV
Субдискретизация насыщенности : 4:2:0
Битовая глубина : 8 бит
Тип развёртки : Прогрессивная
Бит/(Пиксели*Кадры) : 0.134
Размер потока : 1,25 Гбайт (82%)
Библиотека кодирования : x264 core 125 r2208 d9d2288
Настройки программы : cabac=1 / ref=9 / deblock=1:-2:-2 / analyse=0x3:0x133 / me=umh / subme=10 / psy=1 / psy_rd=1.00:0.15 / mixed_ref=1 / me_range=32 / chroma_me=1 / trellis=2 / 8x8dct=1 / cqm=0 / deadzone=21,11 / fast_pskip=0 / chroma_qp_offset=-3 / threads=6 / lookahead_threads=1 / sliced_threads=0 / nr=0 / decimate=0 / interlaced=0 / bluray_compat=0 / constrained_intra=0 / bframes=8 / b_pyramid=2 / b_adapt=2 / b_bias=0 / direct=3 / weightb=1 / open_gop=0 / weightp=2 / keyint=250 / keyint_min=25 / scenecut=40 / intra_refresh=0 / rc=2pass / mbtree=0 / bitrate=1980 / ratetol=1.0 / qcomp=0.60 / qpmin=0 / qpmax=69 / qpstep=4 / cplxblur=20.0 / qblur=0.5 / ip_ratio=1.40 / pb_ratio=1.30 / aq=1:0.80
Язык : English
Default : Да
Forced : Нет

Аудио #1
Идентификатор : 2
Формат : AC-3
Формат/Информация : Audio Coding 3
Расширение режима : CM (complete main)
Параметр Endianness формата : Big
Идентификатор кодека : A_AC3
Продолжительность : 1 ч. 32 м.
Вид битрейта : Постоянный
Битрейт : 192 Кбит/сек
Каналы : 2 канала
Расположение каналов : Front: L R
Частота : 48,0 КГц
Битовая глубина : 16 бит
Метод сжатия : С потерями
Размер потока : 127 Мбайт (8%)
Язык : Russian
Default : Да
Forced : Нет

Аудио #2
Идентификатор : 3
Формат : AC-3
Формат/Информация : Audio Coding 3
Расширение режима : CM (complete main)
Параметр Endianness формата : Big
Идентификатор кодека : A_AC3
Продолжительность : 1 ч. 32 м.
Вид битрейта : Постоянный
Битрейт : 192 Кбит/сек
Каналы : 2 канала
Расположение каналов : Front: L R
Частота : 48,0 КГц
Битовая глубина : 16 бит
Метод сжатия : С потерями
Размер потока : 127 Мбайт (8%)
Язык : English
Default : Нет
Forced : Нет


Релиз от:
За постер, огромное спасибо команде Media-Art-Club!!!


_________________



реклама партнёра


Вернуться к началу
 Профиль Отправить личное сообщение  
 
   Похожие торренты   Автор   Торрент   Размер 
В этой теме нет новых непрочитанных сообщений. Милая ложь / Sweet Lies [Мелодрама, комедия, 1988] HDTVRip, Dvo [НТВ+]

salma3

42 | 8

1.36 ГБ

В этой теме нет новых непрочитанных сообщений. Разная ложь / Separate Lies [триллер, драма, мелодрама, 2005] HDTVRip, Mvo

salma3

47 | 7

1.28 ГБ

В этой теме нет новых непрочитанных сообщений. Тайны и ложь / Secrets & Lies [s1] (Кейт Дэннис, Питер Сэлмон) [2014, триллер, драма, HDTVRip | VictoryFilms]

Nickolas3435

22 | 2

3.9 ГБ

В этой теме нет новых непрочитанных сообщений. Правдивая ложь / True Lies [Боевик, Триллер, Комедия, 1994] WEBRip 1080p, Dub+Mvo+Sub

salma3

119 | 31

13.7 ГБ

В этой теме нет новых непрочитанных сообщений. Ложь прошлого / Past Lies [Драма, 2008] TVRip, Dvo

salma3

2 | 4

1.41 ГБ

В этой теме нет новых непрочитанных сообщений. Грязная ложь / Dirty Lies [Боевик, триллер, драма, криминал, 2016] DVDRip, Dvo

salma3

0 | 0

700.89 МБ

В этой теме нет новых непрочитанных сообщений. Тайны и ложь / Secrets & Lies (Майк Ли / Mike Leigh) [1996г., Франция, драма, BDRip-AVC] MVO

Alfredovich

11 | 4

3.2 ГБ


Начать новую тему Ответить на тему  [ 1 сообщение ] 




Для Мосгорсуда, Роскомнадзора и рекламодателей:: mosgorsud-torrent[собачка]yandex.ru