Торрент файл
скачать торрент магнет ссылка Добавлен: 25 дек 2013, 13:41
Размер: 1.46 ГБ
Сидеров: 38
Личеров: 11
Статус: (salma3)
Автор

СообщениеДобавлено: 25 дек 2013, 13:41 

Не в сети
Супермодератор
Аватара пользователя
Дата регистрации:
15 фев 2012, 16:44
Возраст: 28
Спасибо: 6578 / 2143
Сообщения: 43995
Самолетом, поездом, машиной / Planes, Trains and Automobiles

Год выпуска: 1987
Жанр: Комедия
Режиссёр: Джон Хьюз / John Hughes

В ролях: Стив Мартин, Джон Кэнди, Лэйла Робинс, Майкл МакКин, Кевин Бэйкон, Дилан Бэйкер

Описание: Всё, что было нужно преуспевающему "рекламщику" Нилу Пэйджу, так это успеть домой ко Дню Благодарения. Ведь это так просто: купить билет на самолет, совершить комфортабельный полет до родного Чикаго и уже вечером сесть за праздничный стол со всей своей семьей. Но случилось так, что это оказалось чудовищно трудной задачей. Путь домой станет для Нила самым невероятным приключением всей его жизни!



Страна: США
Продолжительность: 01:32:28
Перевод: Профессиональный (многоголосый, закадровый)

Качество: HDRip
Формат: AVI
Видео кодек: XviD
Аудио кодек: AC3
Видео: 704x400 (1.76:1), 23.976 fps, XviD build 73 ~1865 kbps avg, 0.28 bit/pixel
Аудио: 48 kHz, AC3 Dolby Digital, 3/2 (L,C,R,l,r) + LFE ch, ~384 kbps


Раздача от:

D:Мои рипыPlanes, Trains & Automobiles.1987.HDRip.dexter_lex.avi
General
Complete name : D:Мои рипыPlanes, Trains & Automobiles.1987.HDRip.dexter_lex.avi
Format : AVI
Format/Info : Audio Video Interleave
File size : 1.46 GiB
Duration : 1h 32mn
Overall bit rate : 2 259 Kbps
Writing application : VirtualDubMod 1.5.10.3 | http://www.virtualdub-fr.org || (build 2550/release)
Writing library : VirtualDubMod build 2550/release
Video #0
ID : 0
Format : MPEG-4 Visual
Format profile : Advanced Simple@L5
Format settings, BVOP : 1
Format settings, QPel : No
Format settings, GMC : No warppoints
Format settings, Matrix : Custom
Codec ID : XVID
Codec ID/Hint : XviD
Duration : 1h 32mn
Bit rate : 1 866 Kbps
Width : 704 pixels
Height : 400 pixels
Display aspect ratio : 16:9
Frame rate : 23.976 fps
Color space : YUV
Chroma subsampling : 4:2:0
Bit depth : 8 bits
Scan type : Progressive
Compression mode : Lossy
Bits/(Pixel*Frame) : 0.276
Stream size : 1.21 GiB (83%)
Writing library : XviD 73
Audio #1
ID : 1
Format : AC-3
Format/Info : Audio Coding 3
Mode extension : CM (complete main)
Codec ID : 2000
Duration : 1h 32mn
Bit rate mode : Constant
Bit rate : 384 Kbps
Channel(s) : 6 channels
Channel positions : Front: L C R, Side: L R, LFE
Sampling rate : 48.0 KHz
Bit depth : 16 bits
Compression mode : Lossy
Stream size : 254 MiB (17%)
Alignment : Split accross interleaves
Interleave, duration : 42 ms (1.00 video frame)
Interleave, preload duration : 500 ms


_________________
Проголосуй за трекер Открытый торрент трекер - RUS-MEDIA.ORG

Проголосуй Открытый торрент трекер - RUS-MEDIA.ORG



реклама партнёра


Вернуться к началу
 Профиль Отправить личное сообщение  
 
   Похожие торренты   Автор   Торрент   Размер 
В этой теме нет новых непрочитанных сообщений. Ни поездов, ни самолетов / No trains no planes [Драма, 1999] DVDRip, Dvo

salma3

18 | 3

1.37 ГБ

В этой теме нет новых непрочитанных сообщений. Надежда и слава / Hope And Glory [драма, мелодрама, комедия, 1987] HDRip, Mvo

salma3

8 | 1

1.45 ГБ

В этой теме нет новых непрочитанных сообщений. Пропащие ребята / The Lost Boys [ужасы, триллер, фэнтези, комедия, 1987] HDRip, Mvo

salma3

20 | 3

1.46 ГБ

В этой теме нет новых непрочитанных сообщений. Возвращение в школу ужасов / Return to Horror High [ужасы, комедия, 1987] HDRip, Mvo

salma3

45 | 7

1.45 ГБ

В этой теме нет новых непрочитанных сообщений. Ловчий смерти 2: Битва титанов / Deathstalker II [Фэнтези, Боевик, Приключения, Комедия, 1987] HDRip-AVC, Dvo+Avo

salma3

57 | 13

2.19 ГБ

В этой теме нет новых непрочитанных сообщений. Пелле завоеватель / Pelle erobreren [драма, 1987] HDRip, Dvo

salma3

16 | 3

2.18 ГБ

В этой теме нет новых непрочитанных сообщений. Изощренный кошмар / Twisted Nightmare [ужасы, 1987] HDRip, Avo

salma3

65 | 13

1.47 ГБ


Начать новую тему Ответить на тему  [ 1 сообщение ] 




Для Мосгорсуда, Роскомнадзора и рекламодателей:: mosgorsud-torrent[собачка]yandex.ru