Торрент файл
скачать торрент магнет ссылка Добавлен: 25 дек 2013, 00:16
Размер: 1.46 ГБ
Сидеров: 36
Личеров: 4
Статус: (salma3)
Автор

СообщениеДобавлено: 25 дек 2013, 00:16 

Не в сети
Супермодератор
Аватара пользователя
Дата регистрации:
15 фев 2012, 16:44
Возраст: 27
Спасибо: 5121 / 2089
Сообщения: 17282
Могучий Джо Янг / Mighty Joe Young

«Легенда джунглей в плену у цивилизации»

Жанр: фантастика, фэнтези, боевик, триллер, приключения, семейный
Год выпуска: 1998
Режиссер: Рон Андервуд / Ron Underwood

В ролях: Шарлиз Терон, Билл Пэкстон, Раде Шербеджия, Питер Фёрт, Дэвид Пэймер, Реджина Кинг, Роберт Уиздом, Нэвин Эндрюс, Лоуренс Прессман, Линда Перл

Описание:
От его поступи содрогается земля. Его вид приводит в трепет любого. Его мощи позавидуют самые отчаянные силачи. Его неспособна удержать ни одна клетка в мире. Могучий Джо Янг не хочет войны, но он сможет постоять за себя и защитить своих друзей, кто бы ни встал на его пути…



Страна: США
Продолжительность: 01:49:37
Перевод1: Профессиональный (полное дублирование) [Видео Сервис]
Перевод2: Авторский (одноголосый) [Кашкин]

Файл
Качество: DVDRip
Формат файла: AVI
Видео кодек: XviD
Аудио кодек: AC3
Видео: 688x384 (1.79:1), 25 fps, XviD build 73 ~1503 kbps avg, 0.23 bit/pixel
Аудио 1: Русский: 48 kHz, AC3 Dolby Digital, 2/0 (L,R) ch, ~192.00 kbps avg [полное дублирование]
Аудио 2: Русский: 48 kHz, AC3 Dolby Digital, 2/0 (L,R) ch, ~192.00 kbps avg [одноголосый]



General
Complete name : E:\Фильмы\Могучий Джо Янг.1998.DUB+AVO.[tfile.ru].avi
Format : AVI
Format/Info : Audio Video Interleave
File size : 1.46 GiB
Duration : 1h 49mn
Overall bit rate : 1 903 Kbps
Writing application : VirtualDubMod 1.5.10.3 | http://www.virtualdub-fr.org || (build 2550/release)
Writing library : VirtualDubMod build 2550/release

Video
ID : 0
Format : MPEG-4 Visual
Format profile : Advanced Simple@L5
Format settings, BVOP : 1
Format settings, QPel : No
Format settings, GMC : No warppoints
Format settings, Matrix : Custom
Codec ID : XVID
Codec ID/Hint : XviD
Duration : 1h 49mn
Bit rate : 1 505 Kbps
Width : 688 pixels
Height : 384 pixels
Display aspect ratio : 16:9
Frame rate : 25.000 fps
Color space : YUV
Chroma subsampling : 4:2:0
Bit depth : 8 bits
Scan type : Progressive
Compression mode : Lossy
Bits/(Pixel*Frame) : 0.228
Stream size : 1.15 GiB (79%)
Writing library : XviD 73

Audio #1
ID : 1
Format : AC-3
Format/Info : Audio Coding 3
Mode extension : CM (complete main)
Codec ID : 2000
Duration : 1h 49mn
Bit rate mode : Constant
Bit rate : 192 Kbps
Channel(s) : 2 channels
Channel positions : Front: L R
Sampling rate : 48.0 KHz
Bit depth : 16 bits
Compression mode : Lossy
Stream size : 151 MiB (10%)
Alignment : Split accross interleaves
Interleave, duration : 40 ms (1.00 video frame)
Interleave, preload duration : 500 ms

Audio #2
ID : 2
Format : AC-3
Format/Info : Audio Coding 3
Mode extension : CM (complete main)
Codec ID : 2000
Duration : 1h 49mn
Bit rate mode : Constant
Bit rate : 192 Kbps
Channel(s) : 2 channels
Channel positions : Front: L R
Sampling rate : 48.0 KHz
Bit depth : 16 bits
Compression mode : Lossy
Stream size : 151 MiB (10%)
Alignment : Split accross interleaves
Interleave, duration : 40 ms (1.00 video frame)
Interleave, preload duration : 500 ms












_________________



реклама партнёра


Вернуться к началу
 Профиль Отправить личное сообщение  
 
   Похожие торренты   Автор   Торрент   Размер 
В этой теме нет новых непрочитанных сообщений. Могучий Джо Янг / Mighty Joe Young [фэнтези, боевик, триллер, приключения, семейный, 1998] WEB-DL 720p, Dub

salma3

66 | 19

4.08 ГБ

В этой теме нет новых непрочитанных сообщений. Тарзан и затерянный город / Tarzan and the Lost City [фэнтези, боевик, приключения, семейный, 1998] DVDRip, Avo

salma3

46 | 7

1.46 ГБ

В этой теме нет новых непрочитанных сообщений. Великан  / The Mighty [Комедия, Драма, 1998] DVDRip, Mvo

salma3

0 | 2

1.45 ГБ

В этой теме нет новых непрочитанных сообщений. Затерянные в космосе / Lost in Space [фантастика, боевик, триллер, приключения, 1998] BDRip, Dub+Sub

salma3

193 | 14

1.46 ГБ

В этой теме нет новых непрочитанных сообщений. Затерянные в космосе / Lost in Space [фантастика, боевик, триллер, приключения, 1998] BDRip 1080p, Dub+Sub

salma3

89 | 8

4.37 ГБ

В этой теме нет новых непрочитанных сообщений. Смертельная игра / Deadly Game [боевик, триллер, комедия, криминал, семейный, 1998] DVDRip, Mvo+Dvo [Рен ТВ]

salma3

1 | 3

1.47 ГБ

В этой теме нет новых непрочитанных сообщений. Звездный путь: Восстание / Star Trek: Insurrection [фантастика, боевик, триллер, приключения, 1998] BDRip 1080p, 3Mvo+Avo+Sub

salma3

39 | 33

9.02 ГБ


Начать новую тему Ответить на тему  [ 1 сообщение ] 




Для Мосгорсуда, Роскомнадзора и рекламодателей:: mosgorsud-torrent[собачка]yandex.ru