Торрент файл
скачать торрент магнет ссылка Добавлен: 23 дек 2013, 20:55
Размер: 1.45 ГБ
Сидеров: 33
Личеров: 6
Статус: (salma3)
Автор

СообщениеДобавлено: 23 дек 2013, 20:55 

Не в сети
Супермодератор
Аватара пользователя
Дата регистрации:
15 фев 2012, 16:44
Возраст: 27
Спасибо: 5143 / 2090
Сообщения: 17495
Щупальца 2 / Octopus 2: River of Fear

Год выхода: 2001
Жанр: ужасы
Режиссер: Йосси Вейн

В ролях: Майкл Рейли Бурк, Мередит Мортон, Фредрик Лене, Джон Тадеус, Крис Уильямс, Стоян Ангелов, Пол Винсент О’Коннор, Клемент Блейк, Дункан Фрайзер, Виолета Марковска

О фильме:
Приближается День Независимости, и в этом году жители Нью-Йорка решили отметить его, устроив большой водный праздник. Однако они не знают, что в последнее время на городских берегах, пристанях и в воде таинственным образом гибнут и бесследно исчезают люди. Обеспокоенные непонятными трагическими инцидентами, которые происходят всё чаще и чаще, эту проблему пытаются решить шеф отряда береговой полиции Ник Харфилд и скромная работница мэрии Рейчел Старбёрд, подозревающие, что под гладью нью-йоркских бухт скрывается кровожадный гигантский спрут. Одинокие в своей уверенности, они начинают охоту за морским чудовищем, которое намеревается испортить горожанам праздник, превратив его в День Смерти.



Страна: США
Продолжительность: 01:30:32
Перевод: Профессиональный (двухголосый закадровый)

Файл
Качество: DVDRip
Формат файла: AVI
Видео кодек: XviD
Аудио кодек: AC3
Видео: 640x480 (4:3), 1960 kbps, 25.000 fps
Звук: AC3, 320 kbps, 3/2 (L,C,R,l,r) + LFE ch, 48.0 kHz


Сэмпл, скачать

General
Complete name : щупалка2.avi
Format : AVI
Format/Info : Audio Video Interleave
File size : 1.45 GiB
Duration : 1h 30mn
Overall bit rate : 2 290 Kbps
Writing application : VirtualDubMod 1.5.10.2 (build 2540/release)
Writing library : VirtualDubMod build 2540/release

Video
ID : 0
Format : MPEG-4 Visual
Format profile : Advanced Simple@L5
Format settings, BVOP : 1
Format settings, QPel : No
Format settings, GMC : No warppoints
Format settings, Matrix : Default (H.263)
Codec ID : XVID
Codec ID/Hint : XviD
Duration : 1h 30mn
Bit rate : 1 960 Kbps
Width : 640 pixels
Height : 480 pixels
Display aspect ratio : 4:3
Frame rate : 25.000 fps
Color space : YUV
Chroma subsampling : 4:2:0
Bit depth : 8 bits
Scan type : Progressive
Compression mode : Lossy
Bits/(Pixel*Frame) : 0.255
Stream size : 1.24 GiB (86%)
Writing library : XviD 1.2.1 (UTC 2008-12-04)

Audio
ID : 1
Format : AC-3
Format/Info : Audio Coding 3
Mode extension : CM (complete main)
Format settings, Endianness : Big
Codec ID : 2000
Duration : 1h 30mn
Bit rate mode : Constant
Bit rate : 320 Kbps
Channel(s) : 6 channels
Channel positions : Front: L C R, Side: L R, LFE
Sampling rate : 48.0 KHz
Bit depth : 16 bits
Compression mode : Lossy
Stream size : 207 MiB (14%)
Alignment : Split accross interleaves
Interleave, duration : 40 ms (1.00 video frame)
Interleave, preload duration : 500 ms


_________________



реклама партнёра


Вернуться к началу
 Профиль Отправить личное сообщение  
 
   Похожие торренты   Автор   Торрент   Размер 
В этой теме нет новых непрочитанных сообщений. Щупальца / Octopus [ужасы, приключения, 2000] DVDRip, Dvo

salma3

102 | 19

680.38 МБ

В этой теме нет новых непрочитанных сообщений. Колыбель кошмаров / Cradle of Fear [ужасы, триллер, драма, криминал, детектив, 2001] DVDRip-AVC, Dvo

salma3

16 | 2

1.47 ГБ

В этой теме нет новых непрочитанных сообщений. Octopus Asylum - Octopus Asylum [2014, Progressive Rock, MP3]

PriZraK

4 | 2

209.22 МБ

В этой теме нет новых непрочитанных сообщений. Бермудские щупальца / Bermuda Tentacles [ужасы, фантастика, боевик, триллер, 2014] SATRip, Mvo

salma3

274 | 8

1.37 ГБ

В этой теме нет новых непрочитанных сообщений. Бермудские щупальца / Bermuda Tentacles [ужасы, фантастика, боевик, триллер, 2014] WEB-DLRip, Mvo

salma3

103 | 9

1.46 ГБ

В этой теме нет новых непрочитанных сообщений. Бермудские щупальца / Bermuda Tentacles [ужасы, фантастика, боевик, триллер, 2014] WEB-DL 720p, Mvo

salma3

103 | 3

2.88 ГБ

В этой теме нет новых непрочитанных сообщений. Дом страха / Fear House [Ужасы, 2008] DVDRip, Dvo

salma3

0 | 2

699.89 МБ


Начать новую тему Ответить на тему  [ 1 сообщение ] 




Для Мосгорсуда, Роскомнадзора и рекламодателей:: mosgorsud-torrent[собачка]yandex.ru