Торрент файл
скачать торрент магнет ссылка Добавлен: 21 дек 2013, 23:13
Размер: 1.45 ГБ
Сидеров: 824
Личеров: 24
Статус: (salma3)
Автор

СообщениеДобавлено: 21 дек 2013, 23:13 

Не в сети
Супермодератор
Аватара пользователя
Дата регистрации:
15 фев 2012, 16:44
Возраст: 28
Спасибо: 7165 / 2147
Сообщения: 62013
Последняя любовь мистера Моргана / Mr. Morgan's Last Love

Год выхода: 2013
Жанр: драма, комедия
Режиссер: Сандра Неттельбек

В ролях: Майкл Кейн, Клеманс Поэзи, Джиллиан Андерсон, Джастин Кирк, Джейн Александр, Ричард Хоуп, Аликс Пуасон, Анн Альваро, Кристель Корнил, Янник Шуара

О фильме:
Пожилой американский профессор Мэтью Морган одиноко и замкнуто живет в Париже, преподает философию в университете. Жена, которую он очень любил, умерла несколько лет назад. Кажется, что всё главное в его жизни осталось в прошлом. Так и было, пока однажды в автобусе ему, едва не упавшему, не протянула руку помощи Полин, молодая, открытая, веселая парижанка…



Страна: Германия, Бельгия, США, Франция
Продолжительность: 01:55:49
Перевод: Профессиональное (двухголосое) [Jimmy.J]

Файл
Качество: HDRip
Формат файла: AVI
Видео кодек: XviD
Аудио кодек: AC3
Видео: 704x384 (1.83:1), 23.976 fps, XviD build 50 ~1404 kbps avg, 0.22 bit/pixel
Звук: 48 kHz, AC3 Dolby Digital, 3/2 (L,C,R,l,r) + LFE ch, ~384.00 kbps avg


Семпл

Общее
Полное имя : S:ФильмыПоследняя любовь мистера Моргана. 2013. HDRip. 1.45.avi
Формат : AVI
Формат/Информация : Audio Video Interleave
Размер файла : 1,45 Гбайт
Продолжительность : 1 ч. 55 м.
Общий поток : 1797 Кбит/сек
Программа кодирования : VirtualDubMod 1.5.10.3 | http://www.virtualdub-fr.org || (build 2550/release)
Библиотека кодирования : VirtualDubMod build 2550/release

Видео
Идентификатор : 0
Формат : MPEG-4 Visual
Профиль формата : Advanced Simple@L5
Параметр BVOP формата : 2
Параметр QPel формата : Нет
Параметр GMC формата : Без точки перехода
Параметр матрицы формата : Выборочная
Идентификатор кодека : XVID
Идентификатор кодека/Подсказка : XviD
Продолжительность : 1 ч. 55 м.
Битрейт : 1404 Кбит/сек
Ширина : 704 пикс.
Высота : 384 пикс.
Соотношение сторон : 16:9
Частота кадров : 23,976 кадр/сек
Цветовое пространство : YUV
Подвыборка цветности : 4:2:0
Битовая глубина : 8 бит
Тип развёртки : Прогрессивная
Метод сжатия : С потерями
Бит/(Пиксели*Кадры) : 0.217
Размер потока : 1,14 Гбайт (78%)
Библиотека кодирования : XviD 1.2.1 (UTC 2008-12-04)

Аудио
Идентификатор : 1
Формат : AC-3
Формат/Информация : Audio Coding 3
Расширение режима : CM (complete main)
Идентификатор кодека : 2000
Продолжительность : 1 ч. 55 м.
Вид битрейта : Постоянный
Битрейт : 384 Кбит/сек
Каналы : 6 каналов
Расположение каналов : Front: L C R, Side: L R, LFE
Частота : 48,0 КГц
Битовая глубина : 16 бит
Метод сжатия : С потерями
Размер потока : 318 Мбайт (21%)
Выравнивание : Разделение по промежуткам
Продолжительность промежутка : 42 мс. (1,00 видеокадр)
Время предзагрузки промежутка : 500 ms


_________________
Проголосуй за трекер Открытый торрент трекер - RUS-MEDIA.ORG

Проголосуй Открытый торрент трекер - RUS-MEDIA.ORG


Вернуться к началу
 Профиль Отправить личное сообщение  
 
   Похожие торренты   Автор   Торрент   Размер 
В этой теме нет новых непрочитанных сообщений. Любовь, сбивающая с ног / Punch-Drunk Love [триллер, драма, мелодрама, комедия, 2002] HDRip, Dvo

salma3

0 | 0

1.45 ГБ

В этой теме нет новых непрочитанных сообщений. Молодость больница и любовь / Young Doctors in Love [комедия, 1982] HDRip, Avo

salma3

33 | 9

1.45 ГБ

В этой теме нет новых непрочитанных сообщений. Наконец-то любовь / At Long Last Love [комедия, мюзикл, 1975] HDRip-AVC, Mvo [Director's edition]

salma3

0 | 0

1.38 ГБ

В этой теме нет новых непрочитанных сообщений. Чистая Любовь / Pure Love (Ли Юн Хи / -:-) [2016 г., Южная Корея, драма, мелодрама, романтика, HDRip] DVO

Alfredovich

14 | 4

1.76 ГБ

В этой теме нет новых непрочитанных сообщений. Любовь и милосердие / Love & Mercy (Уильям Полад) [драма, биография, музыка, 2014] HDRip, Dub

Dracon

34 | 2

1.37 ГБ

В этой теме нет новых непрочитанных сообщений. Любовь и секс / Love & Sex [драма, мелодрама, комедия, 2000] DVDRip-AVC, Mvo+Sub

salma3

144 | 51

2.35 ГБ

В этой теме нет новых непрочитанных сообщений. Любовь и секс / Love & Sex [драма, мелодрама, комедия, 2000] DVDRip, Mvo

salma3

95 | 25

1.37 ГБ


Начать новую тему Ответить на тему  [ 1 сообщение ] 




Для Мосгорсуда, Роскомнадзора и рекламодателей:: mosgorsud-torrent[собачка]yandex.ru
cron