Торрент файл
скачать торрент магнет ссылка Добавлен: 21 дек 2013, 23:13
Размер: 1.45 ГБ
Сидеров: 824
Личеров: 23
Статус: (salma3)
Автор

СообщениеДобавлено: 21 дек 2013, 23:13 

В сети
Супермодератор
Аватара пользователя
Дата регистрации:
15 фев 2012, 16:44
Возраст: 27
Спасибо: 5139 / 2090
Сообщения: 17449
Последняя любовь мистера Моргана / Mr. Morgan's Last Love

Год выхода: 2013
Жанр: драма, комедия
Режиссер: Сандра Неттельбек

В ролях: Майкл Кейн, Клеманс Поэзи, Джиллиан Андерсон, Джастин Кирк, Джейн Александр, Ричард Хоуп, Аликс Пуасон, Анн Альваро, Кристель Корнил, Янник Шуара

О фильме:
Пожилой американский профессор Мэтью Морган одиноко и замкнуто живет в Париже, преподает философию в университете. Жена, которую он очень любил, умерла несколько лет назад. Кажется, что всё главное в его жизни осталось в прошлом. Так и было, пока однажды в автобусе ему, едва не упавшему, не протянула руку помощи Полин, молодая, открытая, веселая парижанка…



Страна: Германия, Бельгия, США, Франция
Продолжительность: 01:55:49
Перевод: Профессиональное (двухголосое) [Jimmy.J]

Файл
Качество: HDRip
Формат файла: AVI
Видео кодек: XviD
Аудио кодек: AC3
Видео: 704x384 (1.83:1), 23.976 fps, XviD build 50 ~1404 kbps avg, 0.22 bit/pixel
Звук: 48 kHz, AC3 Dolby Digital, 3/2 (L,C,R,l,r) + LFE ch, ~384.00 kbps avg


Семпл

Общее
Полное имя : S:ФильмыПоследняя любовь мистера Моргана. 2013. HDRip. 1.45.avi
Формат : AVI
Формат/Информация : Audio Video Interleave
Размер файла : 1,45 Гбайт
Продолжительность : 1 ч. 55 м.
Общий поток : 1797 Кбит/сек
Программа кодирования : VirtualDubMod 1.5.10.3 | http://www.virtualdub-fr.org || (build 2550/release)
Библиотека кодирования : VirtualDubMod build 2550/release

Видео
Идентификатор : 0
Формат : MPEG-4 Visual
Профиль формата : Advanced Simple@L5
Параметр BVOP формата : 2
Параметр QPel формата : Нет
Параметр GMC формата : Без точки перехода
Параметр матрицы формата : Выборочная
Идентификатор кодека : XVID
Идентификатор кодека/Подсказка : XviD
Продолжительность : 1 ч. 55 м.
Битрейт : 1404 Кбит/сек
Ширина : 704 пикс.
Высота : 384 пикс.
Соотношение сторон : 16:9
Частота кадров : 23,976 кадр/сек
Цветовое пространство : YUV
Подвыборка цветности : 4:2:0
Битовая глубина : 8 бит
Тип развёртки : Прогрессивная
Метод сжатия : С потерями
Бит/(Пиксели*Кадры) : 0.217
Размер потока : 1,14 Гбайт (78%)
Библиотека кодирования : XviD 1.2.1 (UTC 2008-12-04)

Аудио
Идентификатор : 1
Формат : AC-3
Формат/Информация : Audio Coding 3
Расширение режима : CM (complete main)
Идентификатор кодека : 2000
Продолжительность : 1 ч. 55 м.
Вид битрейта : Постоянный
Битрейт : 384 Кбит/сек
Каналы : 6 каналов
Расположение каналов : Front: L C R, Side: L R, LFE
Частота : 48,0 КГц
Битовая глубина : 16 бит
Метод сжатия : С потерями
Размер потока : 318 Мбайт (21%)
Выравнивание : Разделение по промежуткам
Продолжительность промежутка : 42 мс. (1,00 видеокадр)
Время предзагрузки промежутка : 500 ms


_________________



реклама партнёра


Вернуться к началу
 Профиль Отправить личное сообщение  
 
   Похожие торренты   Автор   Торрент   Размер 
В этой теме нет новых непрочитанных сообщений. Последняя любовь мистера Моргана / Mr. Morgan's Last Love [драма, комедия, 2013] HDRip, Dub [Чистый Звук]

Dracon

3 | 2

1.37 ГБ

В этой теме нет новых непрочитанных сообщений. Последняя любовь мистера Моргана / Mr. Morgan's Last Love (Сандра Неттельбек / Sandra Nettelbeck) [2013г., драма, комедия, WEB-DL 720p] DVO

Alfredovich

12 | 3

3.86 ГБ

В этой теме нет новых непрочитанных сообщений. Любовь есть любовь / Love is love / Wang fu cheng long (Томми Леунг Ка-Шу / Tommy Ga-shu Leung) [1990г., Китай, мелодрама, комедия, HDRip] VO

Alfredovich

6 | 5

1.46 ГБ

В этой теме нет новых непрочитанных сообщений. Любовный прогноз / Сегодняшняя любовь / Love Forecast / Today's Love (Чжин Пё Пак / Jin-pyo Park) [2015г., Южная Корея, комедия, мелодрама, HDRip] mvo

Alfredovich

4 | 3

1.47 ГБ

В этой теме нет новых непрочитанных сообщений. Любовь, сбивающая с ног / Punch-Drunk Love [триллер, драма, мелодрама, комедия, 2002] HDRip, Dvo

salma3

0 | 0

1.45 ГБ

В этой теме нет новых непрочитанных сообщений. Все в порядке, это любовь / Просто это любовь / Ничего страшного, это любовь / It's Okay It's Love [01-16 из 16](Ким Кю Тхэ)[2014, мелодрама, романтика, комедия, психология, HDTVRip 720р]

Nickolas3435

9 | 5

18.51 ГБ

В этой теме нет новых непрочитанных сообщений. Любовь в словах и картинах / Любовь в словах и картинках / Words and Pictures [драма, мелодрама, комедия, 2013] HDRip, Dub [НТВ]

Dracon

244 | 18

1.45 ГБ


Начать новую тему Ответить на тему  [ 1 сообщение ] 




Для Мосгорсуда, Роскомнадзора и рекламодателей:: mosgorsud-torrent[собачка]yandex.ru