Торрент файл
скачать торрент магнет ссылка Добавлен: 21 дек 2013, 20:11
Размер: 1.46 ГБ
Сидеров: 122
Личеров: 11
Статус: (salma3)
Автор

СообщениеДобавлено: 21 дек 2013, 20:11 

Не в сети
Супермодератор
Аватара пользователя
Дата регистрации:
15 фев 2012, 16:44
Возраст: 27
Спасибо: 5121 / 2089
Сообщения: 17282
Рождественские каникулы / Christmas Vacation

Год выпуска: 1989
Жанр: комедия
Режиссер: Джеримайя С. Чечик / Jeremiah S. Chechik

В ролях: Чеви Чейз, Беверли Д`Анджело, Джульетт Льюис, Джонни Галэки, Джон Рэндольф, Дайан Лэдд, Э. Г. Маршалл, Дорис Робертс, Рэнди Куэйд, Мириам Флинн

Описание: В доме Грисуолдов празднуют Рождество. Время, когда дарят подарки, звучат гимны, радостно мерцают огоньки рождественской елки… Но погодите-ка: эта елка вовсе не мерцает. Она вся в огне! Рождество — прекрасное время для Кларка Грисуолда и его семьи. Кларк — это стихийное бедствие, которое может обрушиться на вас в любой момент. Теперь Кларк хочет во что бы то ни стало устроить своей семье самый веселый старомодный семейный праздник Рождества из всех, какие были, есть и будут.



Страна: США
Продолжительность: 01:37:12
Перевод: Профессиональный (полное дублирование)

Качество: BDRip
Формат: AVI
Видео кодек: XviD
Аудио кодек: AC3
Видео: 704x400 (1.76:1), 23.976 fps, XviD build 73 ~1947 kbps avg, 0.29 bit/pixel
Аудио: 48 kHz, AC3 Dolby Digital, 2/0 (L,R) ch, ~192 kbps


D:Мои рипыChristmas.Vacation.1989.BDRip.dexter_lex.avi
General
Complete name : D:Мои рипыChristmas.Vacation.1989.BDRip.dexter_lex.avi
Format : AVI
Format/Info : Audio Video Interleave
File size : 1.46 GiB
Duration : 1h 37mn
Overall bit rate : 2 149 Kbps
Writing application : VirtualDubMod 1.5.10.3 | http://www.virtualdub-fr.org || (build 2550/release)
Writing library : VirtualDubMod build 2550/release
Video #0
ID : 0
Format : MPEG-4 Visual
Format profile : Advanced Simple@L5
Format settings, BVOP : 1
Format settings, QPel : No
Format settings, GMC : No warppoints
Format settings, Matrix : Custom
Codec ID : XVID
Codec ID/Hint : XviD
Duration : 1h 37mn
Bit rate : 1 947 Kbps
Width : 704 pixels
Height : 400 pixels
Display aspect ratio : 16:9
Frame rate : 23.976 fps
Color space : YUV
Chroma subsampling : 4:2:0
Bit depth : 8 bits
Scan type : Progressive
Compression mode : Lossy
Bits/(Pixel*Frame) : 0.288
Stream size : 1.32 GiB (91%)
Writing library : XviD 73
Audio #1
ID : 1
Format : AC-3
Format/Info : Audio Coding 3
Mode extension : CM (complete main)
Codec ID : 2000
Duration : 1h 37mn
Bit rate mode : Constant
Bit rate : 192 Kbps
Channel(s) : 2 channels
Channel positions : Front: L R
Sampling rate : 48.0 KHz
Bit depth : 16 bits
Compression mode : Lossy
Stream size : 133 MiB (9%)
Alignment : Split accross interleaves
Interleave, duration : 42 ms (1.00 video frame)
Interleave, preload duration : 500 ms

Раздача от:


_________________



реклама партнёра


Вернуться к началу
 Профиль Отправить личное сообщение  
 
   Похожие торренты   Автор   Торрент   Размер 
В этой теме нет новых непрочитанных сообщений. Каникулы / Vacation (Джон Фрэнсис Дейли, Джонатан М. Голдштейн) [комедия, приключения, 2015] BDRip 720p, Dub [iTunes]

Dracon

82 | 8

4.64 ГБ

В этой теме нет новых непрочитанных сообщений. Каникулы / Vacation (Джон Фрэнсис Дейли, Джонатан М. Голдштейн) [комедия, приключения, 2015] BDRip 1080p, Dub [iTunes]

Dracon

280 | 37

7.92 ГБ

В этой теме нет новых непрочитанных сообщений. Идеальные каникулы / A Perfect Vacation [боевик, триллер, 2015] BDRip 720p, Mvo

salma3

2190 | 120

3.7 ГБ

В этой теме нет новых непрочитанных сообщений. Каникулы / Vacation (Джон Фрэнсис Дейли, Джонатан М. Голдштейн) [комедия, приключения, 2015] HDRip, Dub [iTunes]

Dracon

2021 | 50

1.37 ГБ

В этой теме нет новых непрочитанных сообщений. Каникулы / Vacation (Джон Фрэнсис Дейли, Джонатан М. Голдштейн) [комедия, приключения, 2015] WEBRip 720p, dub [звук с TS]

Dracon

11675 | 588

1.48 ГБ

В этой теме нет новых непрочитанных сообщений. Идеальные каникулы / A Perfect Vacation / Awaken (Марк Аткинс) [ужасы, боевик, триллер, 2015] HDRip, Mvo

Dracon

636 | 56

1.37 ГБ

В этой теме нет новых непрочитанных сообщений. Рождественские страшилки / A Christmas Horror Story (Грант Харви, Стивен Хобан) [Ужасы, 2015] WEB-DLRip, dvo

Dracon

3239 | 128

1.46 ГБ


Начать новую тему Ответить на тему  [ 1 сообщение ] 




Для Мосгорсуда, Роскомнадзора и рекламодателей:: mosgorsud-torrent[собачка]yandex.ru