[ 1 сообщение ] 
Автор Сообщение

СообщениеДобавлено: 20 дек 2013, 13:33 

Не в сети
Супермодератор
Аватара пользователя
Возраст: 28

Спасибо: 6577 / 2143
Сообщения: 43952
Дата регистрации: 15 фев 2012, 16:44
Торренты: 38709
Андроид / Android / App

Год выхода: 2013
Жанр: триллер
Режиссер: Бобо Боерманс

В ролях: Ханна Хекстра, Исис Каболе, Роберт де Хуг, Алекс Хендрикс, Маттис ван де Санде Бакхуйзен, Патрик Мартенс, Гиги Равелли, Харри ван Рейтховен, Лиза Сипс, Ерун Шпиценбергер

О фильме:Симпатичная студентка Анна просыпается после вечеринки и обнаруживает на своем смартфоне загадочное приложение «Айрис»… Активируя приложение, Анна запускает головокружительную и трагическую череду событий в жизни своих друзей и знакомых. Кто за этим стоит? …



Выпущено: Нидерланды / 2CFilm
Продолжительность: 01:15:34
Озвучивание: Дублированное [лицензия]

Файл
Качество: DVDRip-AVC
Формат файла: MKV
Аудио кодек: AC3
Видео: 2308 kb/s, 1024x440
Аудио: AC3, 448 kb/s (6 ch)

Format : Matroska
Format version : Version 2
File size : 1.45 GiB
Duration : 1h 15mn
Overall bit rate : 2 756 Kbps
Encoded date : UTC 2013-12-20 01:17:33
Writing application : mkvmerge v6.1.0 ('Old Devil') built on Mar 4 2013 09:10:42
Writing library : libebml v1.3.0 + libmatroska v1.4.0

Video
ID : 1
Format : AVC
Format/Info : Advanced Video Codec
Format profile : High@L4.1
Format settings, CABAC : Yes
Format settings, ReFrames : 11 frames
Codec ID : V_MPEG4/ISO/AVC
Duration : 1h 15mn
Bit rate : 2 308 Kbps
Width : 1 024 pixels
Height : 440 pixels
Display aspect ratio : 2.35:1
Frame rate : 25.000 fps
Color space : YUV
Chroma subsampling : 4:2:0
Bit depth : 8 bits
Scan type : Progressive
Bits/(Pixel*Frame) : 0.205
Stream size : 1.19 GiB (82%)
Writing library : x264 core 130 r2273 b3065e6
Encoding settings : cabac=1 / ref=11 / deblock=1:-2:-2 / analyse=0x3:0x133 / me=umh / subme=11 / psy=1 / psy_rd=1.00:0.20 / mixed_ref=1 / me_range=48 / chroma_me=1 / trellis=2 / 8x8dct=1 / cqm=0 / deadzone=21,11 / fast_pskip=1 / chroma_qp_offset=-3 / threads=9 / lookahead_threads=1 / sliced_threads=0 / nr=0 / decimate=0 / interlaced=0 / bluray_compat=0 / constrained_intra=0 / bframes=8 / b_pyramid=2 / b_adapt=2 / b_bias=0 / direct=3 / weightb=1 / open_gop=0 / weightp=2 / keyint=250 / keyint_min=25 / scenecut=40 / intra_refresh=0 / rc=2pass / mbtree=0 / bitrate=2308 / ratetol=1.0 / qcomp=0.60 / qpmin=0 / qpmax=69 / qpstep=4 / cplxblur=20.0 / qblur=0.5 / ip_ratio=1.40 / pb_ratio=1.30 / aq=1:1.00
Default : Yes
Forced : No

Audio
ID : 2
Format : AC-3
Format/Info : Audio Coding 3
Mode extension : CM (complete main)
Format settings, Endianness : Big
Codec ID : A_AC3
Duration : 1h 15mn
Bit rate mode : Constant
Bit rate : 448 Kbps
Channel(s) : 6 channels
Channel positions : Front: L C R, Side: L R, LFE
Sampling rate : 48.0 KHz
Bit depth : 16 bits
Compression mode : Lossy
Stream size : 242 MiB (16%)
Default : Yes
Forced : No



Рип: 03nazar03


У вас нет необходимых прав для просмотра вложений в этом сообщении.

_________________
Проголосуй за трекер Открытый торрент трекер - RUS-MEDIA.ORG

Проголосуй Открытый торрент трекер - RUS-MEDIA.ORG


Вернуться к началу
 Профиль Отправить личное сообщение  
 
 [ 1 сообщение ] 
   Похожие темы   Автор   Ответы   Просмотры 
В этой теме нет новых непрочитанных сообщений. Объезд / Detour [Триллер, 2013] HDRip, Mvo [Лицензия]

Dracon

228

В этой теме нет новых непрочитанных сообщений. Объезд / Detour [Триллер, 2013] WEB-DLRip, Mvo [Лицензия]

Dracon

234

В этой теме нет новых непрочитанных сообщений. Дом забытых вещей  / House of Last Things [фэнтези, триллер, 2013] HDRip, Mvo [Лицензия]

Dracon

269

В этой теме нет новых непрочитанных сообщений. Теория заговора / Zulu [триллер, драма, криминал, 2013] HDRip, Mvo [лицензия]

Dracon

306

В этой теме нет новых непрочитанных сообщений. Теория заговора / Zulu [триллер, драма, криминал, 2013] DVD5, Mvo [лицензия]

Dracon

508

В этой теме нет новых непрочитанных сообщений. Теория заговора / Zulu [Триллер, драма, криминал, 2013] BDRip 720p, Mvo+Sub [Лицензия]

Dracon

362

В этой теме нет новых непрочитанных сообщений. Гостья / The Host [фантастика, боевик, триллер, мелодрама, приключения, 2013] DVD5, Dub+Sub [Лицензия]

Dracon

579





Перейти:  

Для Мосгорсуда, Роскомнадзора и рекламодателей:: mosgorsud-torrent[собачка]yandex.ru