Торрент файл
скачать торрент магнет ссылка Добавлен: 18 дек 2013, 23:39
Размер: 1.46 ГБ
Сидеров: 76
Личеров: 7
Статус: (salma3)
Автор

СообщениеДобавлено: 18 дек 2013, 23:39 

Не в сети
Супермодератор
Аватара пользователя
Дата регистрации:
15 фев 2012, 16:44
Возраст: 27
Спасибо: 5139 / 2089
Сообщения: 17432
12 Рождественских желаний / 12 Wishes of Christmas

Год выпуска: 2011
Жанр: фэнтези, комедия
Режиссер: Питер Салливан / Peter Sullivan

В ролях: Элиза Донован, Гэбриэлль Картерис, Фред Уиллард, Дэвид О’Доннелл, Сара Томпсон, Майкл Гросс, Chonda Pierce, Мо Гаффни, Майкл Бергин, Линн Милано...

Описание: Жизнь Лоры Линдси распадается на части — и это накануне Рождества! Когда терять уже нечего, отчаявшаяся женщина обращается к психологу Ноэль Найтингейл с просьбой о помощи. Но единственный совет, который она получает — это пойти домой и начать загадывать желания. Преодолев скепсис, Лора так и поступает.
И вдруг все загаданное начинает сбываться! Привести свою жизнь в порядок — задача не из легких, и, похоже, исполнение желаний приносит порой больше вреда, чем пользы. Теперь Лоре нужно успеть вернуть все на свои места до наступления стремительно приближающегося праздника. И тут уже без рождественских чудес никак не обойтись.



Страна: США
Продолжительность: 01:25:05
Перевод: Профессиональный (многоголосый закадровый)

Файл
Качество: DVDRip-AVC
Формат файла: MKV
Видео кодек: H264
Аудио кодек: AC3
Видео: 720x572@1024x572 (16:9), 25.000 fps, H264 ~2192 kbps avg, 0.213 bit/pixel
Аудио: Русский 48 kHz, АС3, 6 ch, 256.00 kbps Constant



Общее
Полное имя : 12.Rojdesvenskih.jelaniy.201112.Rojdesvenskih.jelaniy.2011.P.DVDRip-AVC_[New-Team]_by_avproh.mkv
Формат : Matroska
Версия формата : Version 2
Размер файла : 1,46 Гбайт
Продолжительность : 1 ч. 25 м.
Общий поток : 2450 Кбит/сек
Дата кодирования : UTC 2013-12-18 13:23:28
Программа кодирования : mkvmerge v6.1.0 ('Old Devil') built on Mar 4 2013 09:10:42
Библиотека кодирования : libebml v1.3.0 + libmatroska v1.4.0

Видео
Идентификатор : 1
Формат : AVC
Формат/Информация : Advanced Video Codec
Профиль формата : High@L4.1
Параметр CABAC формата : Да
Параметр ReFrames формата : 6 кадров
Идентификатор кодека : V_MPEG4/ISO/AVC
Продолжительность : 1 ч. 25 м.
Битрейт : 2192 Кбит/сек
Ширина : 720 пикселей
Высота : 572 пикселя
Соотношение сторон : 16:9
Режим частоты кадров : Постоянный
Частота кадров : 25,000 кадров/сек
Цветовое пространство : YUV
Субдискретизация насыщенности : 4:2:0
Битовая глубина : 8 бит
Тип развёртки : Прогрессивная
Бит/(Пиксели*Кадры) : 0.213
Размер потока : 1,27 Гбайт (88%)
Библиотека кодирования : x264 core 138 r2356 a1d3d17
Настройки программы : cabac=1 / ref=6 / deblock=1:-2:-1 / analyse=0x3:0x113 / me=umh / subme=10 / psy=1 / psy_rd=1.00:0.05 / mixed_ref=1 / me_range=32 / chroma_me=1 / trellis=2 / 8x8dct=1 / cqm=0 / deadzone=21,11 / fast_pskip=0 / chroma_qp_offset=-3 / threads=9 / lookahead_threads=1 / sliced_threads=0 / nr=0 / decimate=0 / interlaced=0 / bluray_compat=0 / constrained_intra=0 / bframes=8 / b_pyramid=2 / b_adapt=2 / b_bias=0 / direct=3 / weightb=1 / open_gop=0 / weightp=2 / keyint=250 / keyint_min=25 / scenecut=40 / intra_refresh=0 / rc=2pass / mbtree=0 / bitrate=2192 / ratetol=1.0 / qcomp=0.60 / qpmin=0 / qpmax=69 / qpstep=4 / cplxblur=20.0 / qblur=0.5 / ip_ratio=1.40 / pb_ratio=1.30 / aq=1:1.00
Default : Да
Forced : Нет

Аудио
Идентификатор : 2
Формат : AC-3
Формат/Информация : Audio Coding 3
Расширение режима : CM (complete main)
Параметр Endianness формата : Big
Идентификатор кодека : A_AC3
Продолжительность : 1 ч. 25 м.
Вид битрейта : Постоянный
Битрейт : 256 Кбит/сек
Каналы : 6 каналов
Расположение каналов : Front: L C R, Side: L R, LFE
Частота : 48,0 КГц
Битовая глубина : 16 бит
Метод сжатия : С потерями
Размер потока : 156 Мбайт (10%)
Default : Да
Forced : Нет


Раздача от:


_________________



реклама партнёра


Вернуться к началу
 Профиль Отправить личное сообщение  
 
   Похожие торренты   Автор   Торрент   Размер 
В этой теме нет новых непрочитанных сообщений. 12 Рождественских желаний / 12 Wishes of Christmas [фэнтези, комедия, 2011] DVDRip, Mvo [лицензия]

salma3

572 | 47

1.46 ГБ

В этой теме нет новых непрочитанных сообщений. 12 Рождественских желаний / 12 Wishes of Christmas [фэнтези, комедия, 2011] DVD5, Mvo [лицензия]

salma3

48 | 7

3.92 ГБ

В этой теме нет новых непрочитанных сообщений. 7 главных желаний [Комедия, мелодрама, 2013] DVDRip [Лицензия]

Dracon

259 | 5

1.37 ГБ

В этой теме нет новых непрочитанных сообщений. Рождественский Купидон / Christmas Cupid [Фэнтези, Комедия, Семейный, 2010] DVDRip, Dub

salma3

439 | 28

1.06 ГБ

В этой теме нет новых непрочитанных сообщений. Рождественское приключение Бетховена / Beethoven's Christmas Adventure [фэнтези, комедия, 2011] WEBDLRip, Dub

salma3

11 | 3

1.46 ГБ

В этой теме нет новых непрочитанных сообщений. My Endless Wishes - My Endless Wishes [2013, Hard Rock, Hard-n-Heavy, MP3]

PriZraK

0 | 1

101.55 МБ

В этой теме нет новых непрочитанных сообщений. Исполнитель желаний 4: Пророчество сбылось / Wishmaster 4: The Prophecy Fulfilled [фэнтези, ужасы, 2002] WEB-DL 720p, Mvo

salma3

54 | 9

3.33 ГБ


Начать новую тему Ответить на тему  [ 1 сообщение ] 




Для Мосгорсуда, Роскомнадзора и рекламодателей:: mosgorsud-torrent[собачка]yandex.ru