Торрент файл
скачать торрент магнет ссылка Добавлен: 18 дек 2013, 22:27
Размер: 1.46 ГБ
Сидеров: 33
Личеров: 6
Статус: (salma3)
Автор

СообщениеДобавлено: 18 дек 2013, 22:27 

В сети
Супермодератор
Аватара пользователя
Дата регистрации:
15 фев 2012, 16:44
Возраст: 27
Спасибо: 5121 / 2089
Сообщения: 17281
Ночь кошмаров / Ночь ползучих тварей / Night of the Creeps

Год выхода: 1986
Жанр: ужасы, фантастика, триллер, комедия
Режиссер: Фред Деккер

В ролях: Джейсон Ливли, Стив Маршалл, Джилл Уайтло, Том Аткинс, Уолли Тейлор, Брюс Соломон, Вик Полицос, Аллан Кайсер, Кен Херон, Элис Кэдоган

О фильме:
В окрестностях студенческого городка появляются пронырливые червеобразные твари. Они проникают в человеческий организм через рот и превращают людей в зомби. «Народное ополчение» против тварей возглавляют скромный студент с огнеметом наперевес и седой детектив.



Страна: США
Продолжительность: 01:29:52
Перевод: Авторский (одноголосый) [Александр Марченко]

Файл
Качество: HDRip-AVC
Видео кодек: AVC
Аудио кодек: AC3
Видео: 720x384, 1940 kbps, 23,976 fps, 0,293 Bits/(Pixel*Frame)
Аудио1: english, AC3, 48 kHz, 192 kbps, 2 ch
Аудио2: русский, AC3, 48 kHz, 192 kbps, 2 ch
Субтитры: Английские (UTF-8)



General
Unique ID : 194565833744625728073085919151276083547 (0x9260043BB9D20D56AA292283AEBAC95B)
Complete name : G:Night.Of.The.Creeps.1986.DRip-AVC_by_Bathory.mkv
Format : Matroska
Format version : Version 4 / Version 2
File size : 1.46 GiB
Duration : 1h 29mn
Overall bit rate : 2 321 Kbps
Encoded date : UTC 2013-12-18 13:13:00
Writing application : mkvmerge v6.5.0 ('Isn't she lovely') built on Oct 20 2013 12:50:05
Writing library : libebml v1.3.0 + libmatroska v1.4.1

Video
ID : 1
Format : AVC
Format/Info : Advanced Video Codec
Format profile : High@L4.1
Format settings, CABAC : Yes
Format settings, ReFrames : 11 frames
Codec ID : V_MPEG4/ISO/AVC
Duration : 1h 29mn
Bit rate : 1 940 Kbps
Width : 720 pixels
Height : 384 pixels
Display aspect ratio : 1.85:1
Frame rate mode : Constant
Frame rate : 23.976 fps
Color space : YUV
Chroma subsampling : 4:2:0
Bit depth : 8 bits
Scan type : Progressive
Bits/(Pixel*Frame) : 0.293
Stream size : 1.19 GiB (81%)
Writing library : x264 core 138 r2358 9e941d1
Encoding settings : cabac=1 / ref=11 / deblock=1:-2:-2 / analyse=0x3:0x133 / me=umh / subme=11 / psy=1 / psy_rd=1.15:0.10 / mixed_ref=1 / me_range=32 / chroma_me=1 / trellis=2 / 8x8dct=1 / cqm=0 / deadzone=21,11 / fast_pskip=0 / chroma_qp_offset=-3 / threads=6 / lookahead_threads=1 / sliced_threads=0 / nr=0 / decimate=1 / interlaced=0 / bluray_compat=0 / constrained_intra=0 / bframes=16 / b_pyramid=2 / b_adapt=2 / b_bias=0 / direct=3 / weightb=1 / open_gop=0 / weightp=2 / keyint=240 / keyint_min=23 / scenecut=40 / intra_refresh=0 / rc_lookahead=60 / rc=2pass / mbtree=1 / bitrate=1940 / ratetol=1.0 / qcomp=0.70 / qpmin=0 / qpmax=69 / qpstep=4 / cplxblur=20.0 / qblur=0.5 / vbv_maxrate=62500 / vbv_bufsize=78125 / nal_hrd=none / ip_ratio=1.40 / aq=1:1.00
Default : Yes
Forced : No

Audio #1
ID : 2
Format : AC-3
Format/Info : Audio Coding 3
Mode extension : CM (complete main)
Format settings, Endianness : Big
Codec ID : A_AC3
Duration : 1h 29mn
Bit rate mode : Constant
Bit rate : 192 Kbps
Channel count : 2 channels
Channel positions : Front: L R
Sampling rate : 48.0 KHz
Bit depth : 16 bits
Compression mode : Lossy
Stream size : 123 MiB (8%)
Language : English
Default : Yes
Forced : No

Audio #2
ID : 3
Format : AC-3
Format/Info : Audio Coding 3
Mode extension : CM (complete main)
Format settings, Endianness : Big
Codec ID : A_AC3
Duration : 1h 29mn
Bit rate mode : Constant
Bit rate : 192 Kbps
Channel count : 2 channels
Channel positions : Front: L R
Sampling rate : 48.0 KHz
Bit depth : 16 bits
Compression mode : Lossy
Stream size : 123 MiB (8%)
Language : Russian
Default : No
Forced : No

Text
ID : 4
Format : UTF-8
Codec ID : S_TEXT/UTF8
Codec ID/Info : UTF-8 Plain Text
Language : English
Default : No
Forced : No


Релиз от: Автор рипа: _Bathory_


_________________



реклама партнёра


Вернуться к началу
 Профиль Отправить личное сообщение  
 
   Похожие торренты   Автор   Торрент   Размер 
В этой теме нет новых непрочитанных сообщений. Ночь ползучих тварей / Night of the Creeps [ужасы, фантастика, комедия, 1986] BDRip, Avo

salma3

24 | 10

1.46 ГБ

В этой теме нет новых непрочитанных сообщений. Инициация: Тихая ночь, смертельная ночь 4 / Initiation: Silent Night, Deadly Night 4 [ужасы, триллер, 1990] DVDRip, Avo

salma3

127 | 304

1.37 ГБ

В этой теме нет новых непрочитанных сообщений. Тихая ночь, смертельная ночь / Silent Night, Deadly Night [ужасы, триллер, слэшер, 1984] BDRip 720p, Avo

salma3

9 | 3

3.6 ГБ

В этой теме нет новых непрочитанных сообщений. Неудачная ночь / Ночь накануне Хэллоуина / Mischief Night / The Night Before Halloween [ужасы, триллер, драма, 2013] BDRip 1080p, Avo

salma3

27 | 3

5.61 ГБ

В этой теме нет новых непрочитанных сообщений. Неудачная ночь / Ночь накануне Хэллоуина / Mischief Night / The Night Before Halloween [ужасы, триллер, драма, 2013] BDRip 720p, Avo

salma3

71 | 2

2.38 ГБ

В этой теме нет новых непрочитанных сообщений. Ночь Кометы / Night of the Comet [Ужасы, фантастика, триллер, комедия, 1984] BDRip 1080p, Dvo+Avo

salma3

24 | 4

8.16 ГБ

В этой теме нет новых непрочитанных сообщений. Ночь кометы / Night of the Comet [фантастика, комедия, ужасы, 1984] BDRip 720p, Dvo

salma3

19 | 0

3.34 ГБ


Начать новую тему Ответить на тему  [ 1 сообщение ] 




Для Мосгорсуда, Роскомнадзора и рекламодателей:: mosgorsud-torrent[собачка]yandex.ru