Торрент файл
скачать торрент магнет ссылка Добавлен: 18 дек 2013, 22:19
Размер: 1.46 ГБ
Сидеров: 572
Личеров: 47
Статус: (salma3)
Автор

СообщениеДобавлено: 18 дек 2013, 22:19 

Не в сети
Супермодератор
Аватара пользователя
Дата регистрации:
15 фев 2012, 16:44
Возраст: 28
Спасибо: 6643 / 2146
Сообщения: 45841
12 Рождественских желаний / 12 Wishes of Christmas

Год выпуска: 2011
Жанр: фэнтези, комедия
Режиссер: Питер Салливан / Peter Sullivan

В ролях: Элиза Донован, Гэбриэлль Картерис, Фред Уиллард, Дэвид О’Доннелл, Сара Томпсон, Майкл Гросс, Chonda Pierce, Мо Гаффни, Майкл Бергин, Линн Милано...

Описание: Жизнь Лоры Линдси распадается на части — и это накануне Рождества! Когда терять уже нечего, отчаявшаяся женщина обращается к психологу Ноэль Найтингейл с просьбой о помощи. Но единственный совет, который она получает — это пойти домой и начать загадывать желания. Преодолев скепсис, Лора так и поступает.
И вдруг все загаданное начинает сбываться! Привести свою жизнь в порядок — задача не из легких, и, похоже, исполнение желаний приносит порой больше вреда, чем пользы. Теперь Лоре нужно успеть вернуть все на свои места до наступления стремительно приближающегося праздника. И тут уже без рождественских чудес никак не обойтись.



Страна: США
Продолжительность: 01:25:05
Перевод: Профессиональный (многоголосый закадровый)

Файл
Качество: DVDRip
Формат файла: AVI
Видео кодек: XviD
Аудио кодек: AC3
Видео: 720x400 (16:9), 25.000 fps, XVID ~2186 kbps avg, 0.304 bit/pixel
Аудио: Русский 48 kHz, АС3, 6 ch, 256.00 kbps Constant


Общее
Полное имя : 12.Rojdesvenskih.jelaniy.2011.P.DVDRip_[New-Team]_by_avproh.avi
Формат : AVI
Формат/Информация : Audio Video Interleave
Размер файла : 1,46 Гбайт
Продолжительность : 1 ч. 25 м.
Общий поток : 2451 Кбит/сек
Программа кодирования : VirtualDubMod 1.5.10.3 | http://www.virtualdub-fr.org || (build 2550/release)
Библиотека кодирования : VirtualDubMod build 2550/release

Видео
Идентификатор : 0
Формат : MPEG-4 Visual
Профиль формата : Advanced Simple@L5
Параметр BVOP формата : 1
Параметр QPel формата : Нет
Параметр GMC формата : Без точки перехода
Параметр матрицы формата : Выборочная
Идентификатор кодека : XVID
Идентификатор кодека/Подсказка : XviD
Продолжительность : 1 ч. 25 м.
Битрейт : 2186 Кбит/сек
Ширина : 720 пикселей
Высота : 400 пикселей
Соотношение сторон : 16:9
Частота кадров : 25,000 кадров/сек
Цветовое пространство : YUV
Субдискретизация насыщенности : 4:2:0
Битовая глубина : 8 бит
Тип развёртки : Прогрессивная
Метод сжатия : С потерями
Бит/(Пиксели*Кадры) : 0.304
Размер потока : 1,30 Гбайт (89%)
Библиотека кодирования : XviD 73

Аудио
Идентификатор : 1
Формат : AC-3
Формат/Информация : Audio Coding 3
Расширение режима : CM (complete main)
Параметр Endianness формата : Big
Идентификатор кодека : 2000
Продолжительность : 1 ч. 25 м.
Вид битрейта : Постоянный
Битрейт : 256 Кбит/сек
Каналы : 6 каналов
Расположение каналов : Front: L C R, Side: L R, LFE
Частота : 48,0 КГц
Битовая глубина : 16 бит
Метод сжатия : С потерями
Размер потока : 156 Мбайт (10%)
Выравнивание : Разделение по промежуткам
Продолжительность промежутка : 40 мс. (1,00 видеокадр)
Время предзагрузки промежутка : 500 мс.


Раздача от:


_________________
Проголосуй за трекер Открытый торрент трекер - RUS-MEDIA.ORG

Проголосуй Открытый торрент трекер - RUS-MEDIA.ORG



реклама партнёра


Вернуться к началу
 Профиль Отправить личное сообщение  
 
   Похожие торренты   Автор   Торрент   Размер 
В этой теме нет новых непрочитанных сообщений. Книга желаний / Holiday Wishes [Фэнтези, драма, семейный, 2006] DVDRip, Mvo

salma3

82 | 14

1.37 ГБ

В этой теме нет новых непрочитанных сообщений. Гринч – похититель Рождества / How the Grinch Stole Christmas [Комедия, фэнтези, семейный, 2000] BDRip, Dub [Лицензия]

salma3

112 | 26

1.46 ГБ

В этой теме нет новых непрочитанных сообщений. Исполнитель желаний / Wishmaster [Ужасы, фэнтези, 1997] BDRip 1080p, Mvo+Avo+Sub

salma3

38 | 12

8.71 ГБ

В этой теме нет новых непрочитанных сообщений. Исполнитель желаний / Wishmaster [ужасы, фэнтези, 1997] BDRemux 1080p, Mvo

salma3

35 | 24

17.68 ГБ

В этой теме нет новых непрочитанных сообщений. Исполнитель желаний / Wishmaster [ужасы, фэнтези, 1997] BDRip 720p, Mvo+Avo+Sub

salma3

11 | 1

5.1 ГБ

В этой теме нет новых непрочитанных сообщений. Новогодний корпоратив / Office Christmas Party [комедия, 2016] BDRip, Dub+Sub [Лицензия]

salma3

1079 | 155

1.46 ГБ

В этой теме нет новых непрочитанных сообщений. Новогодний корпоратив / Office Christmas Party [Комедия, 2016] BDRip-AVC, Dub+Sub [Лицензия]

salma3

264 | 24

1.81 ГБ


Начать новую тему Ответить на тему  [ 1 сообщение ] 




Для Мосгорсуда, Роскомнадзора и рекламодателей:: mosgorsud-torrent[собачка]yandex.ru