Торрент файл
скачать торрент магнет ссылка Добавлен: 18 дек 2013, 22:19
Размер: 1.46 ГБ
Сидеров: 572
Личеров: 47
Статус: (salma3)
Автор

СообщениеДобавлено: 18 дек 2013, 22:19 

В сети
Супермодератор
Аватара пользователя
Дата регистрации:
15 фев 2012, 16:44
Возраст: 27
Спасибо: 5134 / 2089
Сообщения: 17386
12 Рождественских желаний / 12 Wishes of Christmas

Год выпуска: 2011
Жанр: фэнтези, комедия
Режиссер: Питер Салливан / Peter Sullivan

В ролях: Элиза Донован, Гэбриэлль Картерис, Фред Уиллард, Дэвид О’Доннелл, Сара Томпсон, Майкл Гросс, Chonda Pierce, Мо Гаффни, Майкл Бергин, Линн Милано...

Описание: Жизнь Лоры Линдси распадается на части — и это накануне Рождества! Когда терять уже нечего, отчаявшаяся женщина обращается к психологу Ноэль Найтингейл с просьбой о помощи. Но единственный совет, который она получает — это пойти домой и начать загадывать желания. Преодолев скепсис, Лора так и поступает.
И вдруг все загаданное начинает сбываться! Привести свою жизнь в порядок — задача не из легких, и, похоже, исполнение желаний приносит порой больше вреда, чем пользы. Теперь Лоре нужно успеть вернуть все на свои места до наступления стремительно приближающегося праздника. И тут уже без рождественских чудес никак не обойтись.



Страна: США
Продолжительность: 01:25:05
Перевод: Профессиональный (многоголосый закадровый)

Файл
Качество: DVDRip
Формат файла: AVI
Видео кодек: XviD
Аудио кодек: AC3
Видео: 720x400 (16:9), 25.000 fps, XVID ~2186 kbps avg, 0.304 bit/pixel
Аудио: Русский 48 kHz, АС3, 6 ch, 256.00 kbps Constant


Общее
Полное имя : 12.Rojdesvenskih.jelaniy.2011.P.DVDRip_[New-Team]_by_avproh.avi
Формат : AVI
Формат/Информация : Audio Video Interleave
Размер файла : 1,46 Гбайт
Продолжительность : 1 ч. 25 м.
Общий поток : 2451 Кбит/сек
Программа кодирования : VirtualDubMod 1.5.10.3 | http://www.virtualdub-fr.org || (build 2550/release)
Библиотека кодирования : VirtualDubMod build 2550/release

Видео
Идентификатор : 0
Формат : MPEG-4 Visual
Профиль формата : Advanced Simple@L5
Параметр BVOP формата : 1
Параметр QPel формата : Нет
Параметр GMC формата : Без точки перехода
Параметр матрицы формата : Выборочная
Идентификатор кодека : XVID
Идентификатор кодека/Подсказка : XviD
Продолжительность : 1 ч. 25 м.
Битрейт : 2186 Кбит/сек
Ширина : 720 пикселей
Высота : 400 пикселей
Соотношение сторон : 16:9
Частота кадров : 25,000 кадров/сек
Цветовое пространство : YUV
Субдискретизация насыщенности : 4:2:0
Битовая глубина : 8 бит
Тип развёртки : Прогрессивная
Метод сжатия : С потерями
Бит/(Пиксели*Кадры) : 0.304
Размер потока : 1,30 Гбайт (89%)
Библиотека кодирования : XviD 73

Аудио
Идентификатор : 1
Формат : AC-3
Формат/Информация : Audio Coding 3
Расширение режима : CM (complete main)
Параметр Endianness формата : Big
Идентификатор кодека : 2000
Продолжительность : 1 ч. 25 м.
Вид битрейта : Постоянный
Битрейт : 256 Кбит/сек
Каналы : 6 каналов
Расположение каналов : Front: L C R, Side: L R, LFE
Частота : 48,0 КГц
Битовая глубина : 16 бит
Метод сжатия : С потерями
Размер потока : 156 Мбайт (10%)
Выравнивание : Разделение по промежуткам
Продолжительность промежутка : 40 мс. (1,00 видеокадр)
Время предзагрузки промежутка : 500 мс.


Раздача от:


_________________



реклама партнёра


Вернуться к началу
 Профиль Отправить личное сообщение  
 
   Похожие торренты   Автор   Торрент   Размер 
В этой теме нет новых непрочитанных сообщений. 12 Рождественских желаний / 12 Wishes of Christmas [фэнтези, комедия, 2011] DVDRip-AVC, Mvo [лицензия]

salma3

76 | 7

1.46 ГБ

В этой теме нет новых непрочитанных сообщений. 12 Рождественских желаний / 12 Wishes of Christmas [фэнтези, комедия, 2011] DVD5, Mvo [лицензия]

salma3

48 | 7

3.92 ГБ

В этой теме нет новых непрочитанных сообщений. 7 главных желаний [Комедия, мелодрама, 2013] DVDRip [Лицензия]

Dracon

258 | 5

1.37 ГБ

В этой теме нет новых непрочитанных сообщений. Рождественский Купидон / Christmas Cupid [Фэнтези, Комедия, Семейный, 2010] DVDRip, Dub

salma3

439 | 28

1.06 ГБ

В этой теме нет новых непрочитанных сообщений. Рождественское приключение Бетховена / Beethoven's Christmas Adventure [фэнтези, комедия, 2011] WEBDLRip, Dub

salma3

11 | 3

1.46 ГБ

В этой теме нет новых непрочитанных сообщений. My Endless Wishes - My Endless Wishes [2013, Hard Rock, Hard-n-Heavy, MP3]

PriZraK

0 | 1

101.55 МБ

В этой теме нет новых непрочитанных сообщений. Исполнитель желаний 4: Пророчество сбылось / Wishmaster 4: The Prophecy Fulfilled [фэнтези, ужасы, 2002] WEB-DL 720p, Mvo

salma3

54 | 9

3.33 ГБ


Начать новую тему Ответить на тему  [ 1 сообщение ] 




Для Мосгорсуда, Роскомнадзора и рекламодателей:: mosgorsud-torrent[собачка]yandex.ru