Торрент файл
скачать торрент магнет ссылка Добавлен: 17 дек 2013, 21:14
Размер: 1.48 ГБ
Сидеров: 88
Личеров: 5
Статус: (salma3)
Автор

СообщениеДобавлено: 17 дек 2013, 21:14 

Не в сети
Супермодератор
Аватара пользователя
Дата регистрации:
15 фев 2012, 16:44
Возраст: 27
Спасибо: 5146 / 2090
Сообщения: 17514
Зона высадки / Drop Zone

Год выхода: 1994
Жанр: боевик, триллер
Режиссер: Джон Бэдэм / John Badham

В ролях: Уэсли Снайпс, Гэри Бьюзи, Янси Батлер, Майкл Джитер, Корин Немек, Кайл Сикор

О фильме:
Полицейский и его брат перевозили преступника, специалиста по компьютерам, для дачи показаний в суде. В самолете, в котором они везли этого компьютерного гения, на них напали террористы. Они взорвали кусок обшивки и выпрыгнули с парашютами, прихватив с собой этого ценного парня, столь нужного им для «работы». При этом брат полицейского погиб, а его самого отстранили от расследования, так как этого требовали правила следствия. Но полицейский, естественно, оставить этого так не мог. Он начинает поиски убийц.



Страна: США
Продолжительность: 01:41:32
Перевод1: Профессиональный (многоголосый закадровый) [СТС]
Перевод2: Авторский (одноголосый закадровый) [А.Гаврилов]

Файл
Качество: BDRip
Формат файла: AVI
Видео кодек: XviD
Аудио кодек: AC3
Видео: 720x304, 23.976 fps, XviD 73 ~1687 kbps
Аудио 1 : 48 kHz, AC3 Dolby Digital, 2/0 (L,R) ch, ~192 kbps.. [многоголосый]
Аудио 2 : 48 kHz, AC3 Dolby Digital, 2/0 (L,R) ch, ~192 kbps.. [одноголосый]


Общее
Полное имя : Zona.Visadki.BDRip.avi
Формат : AVI
Формат/Информация : Audio Video Interleave
Размер файла : 1,48 Гбайт
Продолжительность : 1 ч. 41 м.
Общий поток : 2083 Кбит/сек
Программа кодирования : VirtualDubMod 1.5.10.2 (build 2542/release)
Библиотека кодирования : VirtualDubMod build 2542/release

Видео
Идентификатор : 0
Формат : MPEG-4 Visual
Профиль формата : Advanced Simple@L5
Параметр BVOP формата : 1
Параметр QPel формата : Нет
Параметр GMC формата : Без точки перехода
Параметр матрицы формата : Выборочная
Идентификатор кодека : XVID
Идентификатор кодека/Подсказка : XviD
Продолжительность : 1 ч. 41 м.
Битрейт : 1687 Кбит/сек
Ширина : 720 пикс.
Высота : 304 пикс.
Соотношение сторон : 2,35:1
Частота кадров : 23,976 кадр/сек
Цветовое пространство : YUV
Подвыборка цветности : 4:2:0
Битовая глубина : 8 бит
Тип развёртки : Прогрессивная
Метод сжатия : С потерями
Бит/(Пиксели*Кадры) : 0.321
Размер потока : 1,20 Гбайт (81%)
Библиотека кодирования : XviD 73

Аудио #1
Идентификатор : 1
Формат : AC-3
Формат/Информация : Audio Coding 3
Расширение режима : CM (complete main)
Идентификатор кодека : 2000
Продолжительность : 1 ч. 41 м.
Вид битрейта : Постоянный
Битрейт : 192 Кбит/сек
Канал(ы) : 2 канала(ов)
Расположение каналов : Front: L R
Частота : 48,0 КГц
Битовая глубина : 16 бит
Метод сжатия : С потерями
Размер потока : 139 Мбайт (9%)
Выравнивание : Разделение по промежуткам
Продолжительность промежутка : 42 мс. (1,00 видеокадр)
Время предзагрузки промежутка : 500 ms

Аудио #2
Идентификатор : 2
Формат : AC-3
Формат/Информация : Audio Coding 3
Расширение режима : CM (complete main)
Идентификатор кодека : 2000
Продолжительность : 1 ч. 40 м.
Вид битрейта : Постоянный
Битрейт : 192 Кбит/сек
Канал(ы) : 2 канала(ов)
Расположение каналов : Front: L R
Частота : 48,0 КГц
Битовая глубина : 16 бит
Метод сжатия : С потерями
Размер потока : 137 Мбайт (9%)
Выравнивание : Разделение по промежуткам
Продолжительность промежутка : 42 мс. (1,01 видеокадр)
Время предзагрузки промежутка : 500 ms


Релиз от: Leon-masl


_________________



реклама партнёра


Вернуться к началу
 Профиль Отправить личное сообщение  
 
   Похожие торренты   Автор   Торрент   Размер 
В этой теме нет новых непрочитанных сообщений. Зона / The Zone [Боевик, триллер, драма, 1995] DVDRip, Mvo

salma3

8 | 1

1.36 ГБ

В этой теме нет новых непрочитанных сообщений. Мертвая зона / The Dead Zone [ужасы, триллер, драма, детектив, 1983] BDRip, Mvo [ТВ3]

salma3

43 | 8

1.46 ГБ

В этой теме нет новых непрочитанных сообщений. Мертвая Зона / The Dead Zone [Драма, фэнтези, триллер, экранизация, 1983] BDRip 720p, Mvo+Dvo+4Avo+Sub

salma3

61 | 4

7.94 ГБ

В этой теме нет новых непрочитанных сообщений. Мёртвая зона / The Dead Zone [ужасы, триллер, драма, детектив, 1983] BDRip 1080p, Mvo+Dvo+4Avo+Sub

salma3

8 | 3

13.83 ГБ

В этой теме нет новых непрочитанных сообщений. Зона смерти / Kill Zone [боевик, 1993] DVDRip, Avo

salma3

87 | 6

1.37 ГБ

В этой теме нет новых непрочитанных сообщений. Зона безопасности / Safety zone [боевик, фантастика, 1996] VHSRip, Avo

salma3

11 | 5

1.07 ГБ

В этой теме нет новых непрочитанных сообщений. Зона нанесения удара / Strike Zone [Боевик, 2000] DVDRip, Dvo

salma3

37 | 1

1.73 ГБ


Начать новую тему Ответить на тему  [ 1 сообщение ] 




Для Мосгорсуда, Роскомнадзора и рекламодателей:: mosgorsud-torrent[собачка]yandex.ru