Торрент файл
скачать торрент магнет ссылка Добавлен: 16 дек 2013, 21:51
Размер: 1.45 ГБ
Сидеров: 15
Личеров: 3
Статус: (salma3)
Автор

СообщениеДобавлено: 16 дек 2013, 21:51 

Не в сети
Супермодератор
Аватара пользователя
Дата регистрации:
15 фев 2012, 16:44
Возраст: 28
Спасибо: 6563 / 2130
Сообщения: 43556
Срочное погружение / Crash Dive

Год выхода: 1997
Жанр: Боевик, триллер, драма
Режиссер: Эндрю Стивенс

В ролях: Майкл Дудикофф, Фредерик Форрест, Рейнер Шёне, Джей Аковоне, Клэй Гринбуш, Катрин Белл, Майкл Кавана, Сайрус Фармер, Тайм Уинтерс

О фильме:
Экипаж атомной подводной лодки Улисс спасает жертв кораблекрушения, но жертвы оказываются террористами и захватывают подводку. Только бывший морпех может спасти экипаж, проникнув на борт лодки, уже находящейся под водой. Термин «аварийное погружение» используется, когда лодка пытается ускользнуть с экранов радаров, и никогда не предпринимается атомными подлодками.



Страна: США
Продолжительность: 01:30:22
Перевод: Профессиональный [многоголосый]

Файл
Качество: HDRip
Формат файла: AVI
Видео кодек: XviD
Аудио кодек: AC3
Видео: 720x400 (1.80:1), 23.976 fps, XviD build 73 ~1845 kbps avg, 0.27 bit/pixel
Звук: 48 kHz, AC3 Dolby Digital, 3/2 (L,C,R,l,r) + LFE ch, ~448 kbps


Семпл

Format : AVI
Format/Info : Audio Video Interleave
File size : 1.45 GiB
Duration : 1h 30mn
Overall bit rate : 2 303 Kbps
Movie name : Crash.Dive.1997.XviD.HDRip.-MediaClub
Director : -=MediaClub - Odessit=-
Writing application : VirtualDubMod 1.5.10.3 | http://www.virtualdub-fr.org || (build 2550/release)
Writing library : VirtualDubMod build 2550/release

Video
ID : 0
Format : MPEG-4 Visual
Format profile : Advanced Simple@L5
Format settings, BVOP : 1
Format settings, QPel : No
Format settings, GMC : No warppoints
Format settings, Matrix : Custom
Codec ID : XVID
Codec ID/Hint : XviD
Duration : 1h 30mn
Bit rate : 1 846 Kbps
Width : 720 pixels
Height : 400 pixels
Display aspect ratio : 16:9
Frame rate : 23.976 fps
Color space : YUV
Chroma subsampling : 4:2:0
Bit depth : 8 bits
Scan type : Progressive
Compression mode : Lossy
Bits/(Pixel*Frame) : 0.267
Stream size : 1.17 GiB (80%)
Writing library : XviD 73

Audio
ID : 1
Format : AC-3
Format/Info : Audio Coding 3
Mode extension : CM (complete main)
Codec ID : 2000
Duration : 1h 30mn
Bit rate mode : Constant
Bit rate : 448 Kbps
Channel(s) : 6 channels
Channel positions : Front: L C R, Side: L R, LFE
Sampling rate : 48.0 KHz
Bit depth : 16 bits
Compression mode : Lossy
Stream size : 290 MiB (19%)
Alignment : Split accross interleaves
Interleave, duration : 42 ms (1.00 video frame)
Interleave, preload duration : 500 ms


Релиз от: |


_________________
Проголосуй за трекер Открытый торрент трекер - RUS-MEDIA.ORG

Проголосуй Открытый торрент трекер - RUS-MEDIA.ORG



реклама партнёра


Вернуться к началу
 Профиль Отправить личное сообщение  
 
   Похожие торренты   Автор   Торрент   Размер 
В этой теме нет новых непрочитанных сообщений. Олли и сокровища пиратов / Dive Olly Dive and the Pirate Treasure (Боб Дусетте, Гари Херст, Боб Бакстер) [мультфильм, семейный, детский, 2014] WEB-DLRip, Dub [лицензия]

Dracon

12 | 2

1.37 ГБ

В этой теме нет новых непрочитанных сообщений. Глубокое погружение / The Rift [ужасы, фантастика, боевик, триллер, приключения, 1990] BDRip, Avo

salma3

119 | 33

1.46 ГБ

В этой теме нет новых непрочитанных сообщений. Над глубиной: Хроника выживания / Cage Dive [ужасы, триллер, драма, 2017] WEBDLRip, Dvo

salma3

2255 | 351

1.37 ГБ

В этой теме нет новых непрочитанных сообщений. Над глубиной: Хроника выживания / Cage Dive [ужасы, триллер, драма, 2017] WEB-DLRip, Dvo

salma3

1903 | 312

1.45 ГБ

В этой теме нет новых непрочитанных сообщений. Над глубиной: Хроника выживания / Cage Dive [Триллер, ужасы, драма, 2017] WEB-DLRip-AVC, Dub [iTunes]

salma3

300 | 75

744.8 МБ

В этой теме нет новых непрочитанных сообщений. Над глубиной: Хроника выживания / Cage Dive [Триллер, ужасы, драма, 2017] WEB-DLRip-AVC, Dub [iTunes]

salma3

247 | 62

2.51 ГБ

В этой теме нет новых непрочитанных сообщений. Над глубиной: Хроника выживания / Cage Dive [Триллер, ужасы, драма, 2017] WEB-DLRip, Dub [iTunes]

salma3

2234 | 615

1.37 ГБ


Начать новую тему Ответить на тему  [ 1 сообщение ] 




Для Мосгорсуда, Роскомнадзора и рекламодателей:: mosgorsud-torrent[собачка]yandex.ru