Торрент файл
скачать торрент магнет ссылка Добавлен: 16 дек 2013, 12:43
Размер: 2.04 ГБ
Сидеров: 3
Личеров: 1
Статус: (salma3)
Автор

СообщениеДобавлено: 16 дек 2013, 12:43 

Не в сети
Зам. Админа
Аватара пользователя
Дата регистрации:
02 дек 2010, 12:39
Спасибо: 12458 / 214
Сообщения: 27968
Год выхода: 2012
Жанр: ужасы, триллер
Режиссер: Уле Борнедаль
В ролях: Джеффри Дин Морган, Наташа Калис, Кира Седжвик, Мэдисон Девенпорт, Роб ЛаБелль, Матисьяху, Джей Бразо, Грант Шоу, Нана Гбивонио, Анна Хэган

О фильме:
Девочка покупает винтажную шкатулку на ярмарке в одном из соседних дворов. Поначалу родители не видят повода для беспокойства, когда их младшая дочь становится одержима новой игрушкой. Со временем поведение девочки становится все более странным, а реакции неожиданными, родители пытаются раскрыть секрет шкатулки. Они не подозревают, что в деревянной коробке живет злой дух, который творит страшные вещи со своими хозяевами — их было много и владели они этим «сокровищем» очень недолго. Отец девочки объединяется с бывшей женой в попытках найти способ снять проклятие с их ребенка.



Выпущено: США
Продолжительность: 01:32:13
Озвучивание: Дублированное [лицензия]

Формат: MKV
Качество: BDRip-AVC
Видео:MPEG4 Video (H264) 1072x600 (533:300) 23.976fps 2800 Kbps
Аудио: Dolby AC3 48000Hz 6ch 448kbps
Субтитры: UTF-8 [Russian, Полные]

семпл


General
Unique ID : 223611821293418585414174162392012105613 (0xA83A11FC37E424854858893BEE75278D)
Complete name : D:\Фильмы !\Шкатулка проклятия .mkv
Format : Matroska
Format version : Version 2
File size : 2.04 GiB
Duration : 1h 32mn
Overall bit rate : 3 162 Kbps
Movie name : GORENOISE
Writing application : XviD4PSP 6.0 / 53.6.0
Writing library : XviD4PSP 6.0 / 53.6.0

Video
ID : 1
Format : AVC
Format/Info : Advanced Video Codec
Format profile : High@L4.1
Format settings, CABAC : Yes
Format settings, ReFrames : 3 frames
Codec ID : V_MPEG4/ISO/AVC
Duration : 1h 32mn
Bit rate : 2 651 Kbps
Nominal bit rate : 2 800 Kbps
Width : 1 072 pixels
Height : 600 pixels
Display aspect ratio : 16:9
Original display aspect ratio : 16:9
Frame rate mode : Constant
Frame rate : 23.976 fps
Color space : YUV
Chroma subsampling : 4:2:0
Bit depth : 8 bits
Scan type : Progressive
Bits/(Pixel*Frame) : 0.172
Stream size : 1.71 GiB (84%)
Title : GORENOISE
Writing library : x264 core 116 r2019M 9cc407d
Encoding settings : cabac=1 / ref=3 / deblock=1:-3:-3 / analyse=0x3:0x133 / me=hex / subme=9 / psy=1 / psy_rd=1.00:0.15 / mixed_ref=1 / me_range=16 / chroma_me=1 / trellis=1 / 8x8dct=1 / cqm=0 / deadzone=21,11 / fast_pskip=1 / chroma_qp_offset=-3 / threads=8 / sliced_threads=0 / nr=0 / decimate=1 / interlaced=0 / bluray_compat=0 / constrained_intra=0 / bframes=3 / b_pyramid=1 / b_adapt=2 / b_bias=0 / direct=3 / weightb=1 / open_gop=0 / weightp=2 / keyint=230 / keyint_min=23 / scenecut=40 / intra_refresh=0 / rc_lookahead=40 / rc=abr / mbtree=1 / bitrate=2800 / ratetol=1.0 / qcomp=0.60 / qpmin=10 / qpmax=51 / qpstep=4 / ip_ratio=1.40 / aq=1:1.00
Language : English
Default : Yes
Forced : No

Audio
ID : 2
Format : AC-3
Format/Info : Audio Coding 3
Mode extension : CM (complete main)
Format settings, Endianness : Big
Codec ID : A_AC3
Duration : 1h 32mn
Bit rate mode : Constant
Bit rate : 448 Kbps
Channel(s) : 6 channels
Channel positions : Front: L C R, Side: L R, LFE
Sampling rate : 48.0 KHz
Bit depth : 16 bits
Compression mode : Lossy
Stream size : 296 MiB (14%)
Title : Профессиональный (дублированный) R5
Language : Russian
Default : Yes
Forced : No

Text
ID : 3
Format : UTF-8
Codec ID : S_TEXT/UTF8
Codec ID/Info : UTF-8 Plain Text
Title : Полные
Language : Russian
Default : Yes
Forced : No






реклама партнёра


Вернуться к началу
 Профиль  
 
   Похожие торренты   Автор   Торрент   Размер 
В этой теме нет новых непрочитанных сообщений. Одержимая бесом / Possession [ужасы, драма, 1981] BDRip, Dvo [Лицензия]

salma3

6 | 2

1.46 ГБ

В этой теме нет новых непрочитанных сообщений. Мэрайа Мунди и шкатулка Мидаса / The Adventurer: The Curse of the Midas Box [Фэнтези, приключения, семейный2013] BDRip 720p, Mvo [лицензия]

Dracon

12 | 3

5.12 ГБ

В этой теме нет новых непрочитанных сообщений. Мэрайа Мунди и шкатулка Мидаса / The Adventurer: The Curse of the Midas Box [Фэнтези, приключения, семейный2013] BDRip 1080p, Mvo [лицензия]

Dracon

61 | 2

8.22 ГБ

В этой теме нет новых непрочитанных сообщений. Грэйс / Grace: The Possession [ужасы, триллер, 2014] WEB-DLRip, Dvo

salma3

313 | 11

1.37 ГБ

В этой теме нет новых непрочитанных сообщений. Одержимость вуду / Voodoo Possession [ужасы, драма, детектив, 2014] BDRip 720p, Dvo

salma3

76 | 5

4.49 ГБ

В этой теме нет новых непрочитанных сообщений. Одержимость Майкла Кинга / The Possession of Michael King [Ужасы, 2014] BDRip 720p, Avo

Dracon

324 | 16

3.75 ГБ

В этой теме нет новых непрочитанных сообщений. Одержимость Майкла Кинга / The Possession of Michael King [ужасы, 2014] BDRip 720p, dub [чистый звук]

Nickolas3435

1084 | 54

4.94 ГБ


Начать новую тему Ответить на тему  [ 1 сообщение ] 




Для Мосгорсуда, Роскомнадзора и рекламодателей:: mosgorsud-torrent[собачка]yandex.ru