Торрент файл
скачать торрент магнет ссылка Добавлен: 15 дек 2013, 21:45
Размер: 1.36 ГБ
Сидеров: 42
Личеров: 8
Статус: (salma3)
Автор

СообщениеДобавлено: 15 дек 2013, 21:45 

Не в сети
Супермодератор
Аватара пользователя
Дата регистрации:
15 фев 2012, 16:44
Возраст: 27
Спасибо: 5121 / 2089
Сообщения: 17282
Милая ложь / Sweet Lies

Год выхода: 1988
Жанр: Мелодрама, комедия
Режиссер: Натали Делон

В ролях: Трит Уильямс, Джоанна Пакула, Джулианна Филлипс, Laura Manszky, Норберт Вайссер, Мэрлин Доддс Фрэнк, Айна Валле, Жизель Казадезю, Бернар Фрессон, Franck Tiozzo

О фильме:
Агент страховой компании приезжает в командировку в Париж и неожиданно оказывается в центре внимания трех незамужних женщин. Они поспорили, кто соблазнит его первым, но через некоторое время дамы поняли, что любят его…



Страна: Франция, США
Продолжительность: 01:32:16
Перевод: Профессиональный [двухголосый] [НТВ+]

Файл
Качество: HDTVRip
Формат файла: AVI
Видео кодек: XviD
Аудио кодек: AC3
Видео: 1715 Кбит/с, 720x400, 25.000 кадр/с
Аудио1: Русский (АС3, 2 ch, 192 Кбит/с)
Аудио2: Английский (AC3, 2 ch, 192 Кбит/с)


Семпл

Общее
Полное имя : Milaja.lozh.1988.HDTVRip.MediaClub.avi
Формат : AVI
Формат/Информация : Audio Video Interleave
Размер файла : 1,36 Гбайт
Продолжительность : 1 ч. 32 м.
Общий поток : 2113 Кбит/сек
Название фильма : MediaClub
Программа кодирования : VirtualDubMod 1.5.10.2 (build 2540/release)
Библиотека кодирования : VirtualDubMod build 2540/release

Видео
Идентификатор : 0
Формат : MPEG-4 Visual
Профиль формата : Advanced Simple@L5
Параметр BVOP формата : 2
Параметр QPel формата : Нет
Параметр GMC формата : Без точки перехода
Параметр матрицы формата : Default (MPEG)
Идентификатор кодека : XVID
Идентификатор кодека/Подсказка : XviD
Продолжительность : 1 ч. 32 м.
Битрейт : 1715 Кбит/сек
Ширина : 720 пикселей
Высота : 400 пикселей
Соотношение сторон : 16:9
Частота кадров : 25,000 кадров/сек
Цветовое пространство : YUV
Субдискретизация насыщенности : 4:2:0
Битовая глубина : 8 бит
Тип развёртки : Прогрессивная
Метод сжатия : С потерями
Бит/(Пиксели*Кадры) : 0.238
Размер потока : 1,11 Гбайт (81%)
Библиотека кодирования : XviD 65

Аудио #1
Идентификатор : 1
Формат : AC-3
Формат/Информация : Audio Coding 3
Расширение режима : CM (complete main)
Параметр Endianness формата : Big
Идентификатор кодека : 2000
Продолжительность : 1 ч. 32 м.
Вид битрейта : Постоянный
Битрейт : 192 Кбит/сек
Каналы : 2 канала
Расположение каналов : Front: L R
Частота : 48,0 КГц
Битовая глубина : 16 бит
Метод сжатия : С потерями
Размер потока : 127 Мбайт (9%)
Выравнивание : Разделение по промежуткам
Продолжительность промежутка : 40 мс. (1,00 видеокадр)
Время предзагрузки промежутка : 500 мс.

Аудио #2
Идентификатор : 2
Формат : AC-3
Формат/Информация : Audio Coding 3
Расширение режима : CM (complete main)
Параметр Endianness формата : Big
Идентификатор кодека : 2000
Продолжительность : 1 ч. 32 м.
Вид битрейта : Постоянный
Битрейт : 192 Кбит/сек
Каналы : 2 канала
Расположение каналов : Front: L R
Частота : 48,0 КГц
Битовая глубина : 16 бит
Метод сжатия : С потерями
Размер потока : 127 Мбайт (9%)
Выравнивание : Разделение по промежуткам
Продолжительность промежутка : 40 мс. (1,00 видеокадр)
Время предзагрузки промежутка : 500 мс.


Релиз от:


_________________



реклама партнёра


Вернуться к началу
 Профиль Отправить личное сообщение  
 
   Похожие торренты   Автор   Торрент   Размер 
В этой теме нет новых непрочитанных сообщений. Милая ложь / Sweet Lies [Мелодрама, комедия, 1988] HDTVRip-AVC, Dvo [НТВ+]

salma3

20 | 3

1.52 ГБ

В этой теме нет новых непрочитанных сообщений. Разная ложь / Separate Lies [триллер, драма, мелодрама, 2005] HDTVRip, Mvo

salma3

37 | 6

1.28 ГБ

В этой теме нет новых непрочитанных сообщений. Тайны и ложь / Secrets & Lies [s1] (Кейт Дэннис, Питер Сэлмон) [2014, триллер, драма, HDTVRip | VictoryFilms]

Nickolas3435

22 | 2

3.9 ГБ

В этой теме нет новых непрочитанных сообщений. Правдивая ложь / True Lies [Боевик, Триллер, Комедия, 1994] WEBRip 1080p, Dub+Mvo+Sub

salma3

119 | 31

13.7 ГБ

В этой теме нет новых непрочитанных сообщений. Ложь прошлого / Past Lies [Драма, 2008] TVRip, Dvo

salma3

2 | 4

1.41 ГБ

В этой теме нет новых непрочитанных сообщений. Грязная ложь / Dirty Lies [Боевик, триллер, драма, криминал, 2016] DVDRip, Dvo

salma3

0 | 0

700.89 МБ

В этой теме нет новых непрочитанных сообщений. Тайны и ложь / Secrets & Lies (Майк Ли / Mike Leigh) [1996г., Франция, драма, BDRip-AVC] MVO

Alfredovich

11 | 4

3.2 ГБ


Начать новую тему Ответить на тему  [ 1 сообщение ] 




Для Мосгорсуда, Роскомнадзора и рекламодателей:: mosgorsud-torrent[собачка]yandex.ru