Торрент файл
скачать торрент магнет ссылка Добавлен: 15 дек 2013, 21:39
Размер: 1.09 ГБ
Сидеров: 19
Личеров: 5
Статус: (salma3)
Автор

СообщениеДобавлено: 15 дек 2013, 21:39 

Не в сети
Супермодератор
Аватара пользователя
Дата регистрации:
15 фев 2012, 16:44
Возраст: 27
Спасибо: 5139 / 2089
Сообщения: 17411
Портрет вампира / Frost: Portrait of a vampire

Год выпуска: 2003
Жанр: ужасы, триллер
Режиссер: Кевин ВанХук / Kevin VanHook

В ролях: Гэри Бьюзи, Джефф Манзанарес, Чарльз Листер, Карен Бэйли, Дилэйна Браун, Мелисса Ди Меглио, Кэти Фицпатрик

Описание:
Они были лучшими друзьями, пока один из них не умер. Теперь они — враги… В городе появились свежие трупы. В этих телах не осталось ни капли крови, а в области шеи — странные раны, похожие на укусы неизвестного существа… Полиции не остаётся ничего, кроме как поверить в вампиров и обратиться за помощью к специалисту — охотнику на вампиров, Джеку Фросту.
Всего десять лет назад Джек Фрост был обычным парнем, и у него был лучший друг, Нэт, увлекавшийся мистикой и паранормальными явлениями. Когда Нэт погиб, он превратился в могущественного вампира и заклятого врага Джека. Теперь у Джека есть только одна цель — уничтожить бывшего лучшего друга и положить конец кровавому беспределу, учинённому вурдалаками.



Страна: США
Продолжительность: 01:22:35
Перевод: Профессиональный (многоголосый, закадровый) [СТС]

Файл
Качество: SATRip
Формат файла: AVI
Видео кодек: XviD
Аудио кодек: MP3
Видео: 640x464 (1.38:1), 25 fps, XviD MPEG-4 ~1757 kbps avg, 0.24 bit/pixel
Аудио: Русский: 48 kHz, MPEG Layer 3, 2 ch, ~128.00 kbps avg



General
Complete name : E:\Фильмы\Портрет вампира.2003.MVO.SATRip.[tfile.ru].avi
Format : AVI
Format/Info : Audio Video Interleave
File size : 1.09 GiB
Duration : 1h 22mn
Overall bit rate : 1 895 Kbps
Writing application : VirtualDubMod 1.5.10.2 (build 2540/release)
Writing library : VirtualDubMod build 2540/release

Video
ID : 0
Format : MPEG-4 Visual
Format profile : Advanced Simple@L5
Format settings, BVOP : 2
Format settings, QPel : No
Format settings, GMC : No warppoints
Format settings, Matrix : Default (H.263)
Muxing mode : Packed bitstream
Codec ID : XVID
Codec ID/Hint : XviD
Duration : 1h 22mn
Bit rate : 1 758 Kbps
Width : 640 pixels
Height : 464 pixels
Display aspect ratio : 1.379
Frame rate : 25.000 fps
Color space : YUV
Chroma subsampling : 4:2:0
Bit depth : 8 bits
Scan type : Progressive
Compression mode : Lossy
Bits/(Pixel*Frame) : 0.237
Stream size : 1.01 GiB (93%)
Writing library : XviD 1.2.0.dev47 (UTC 2006-11-01)

Audio
ID : 1
Format : MPEG Audio
Format version : Version 1
Format profile : Layer 3
Mode : Joint stereo
Mode extension : MS Stereo
Codec ID : 55
Codec ID/Hint : MP3
Duration : 1h 22mn
Bit rate mode : Constant
Bit rate : 128 Kbps
Channel(s) : 2 channels
Sampling rate : 48.0 KHz
Compression mode : Lossy
Stream size : 75.6 MiB (7%)
Alignment : Aligned on interleaves
Interleave, duration : 40 ms (1.00 video frame)
Interleave, preload duration : 504 ms
Writing library : LAME3.90.3












_________________



реклама партнёра


Вернуться к началу
 Профиль Отправить личное сообщение  
 
   Похожие торренты   Автор   Торрент   Размер 
В этой теме нет новых непрочитанных сообщений. Объятие вампира / Embrace of the Vampire [ужасы, триллер, 1995] BDRip, Avo

salma3

3 | 48

1.45 ГБ

В этой теме нет новых непрочитанных сообщений. Дневники Вампира / The Vampire Diaries [07х05 из 22] [ужасы, фэнтези, триллер, 2015] WEB-DLRip, Mvo [LostFilm]

salma3

372 | 1088

2 ГБ

В этой теме нет новых непрочитанных сообщений. Дневники Вампира / The Vampire Diaries [06x01-04 из 22] [2014, ужасы, фэнтези, триллер, драма, мелодрама, детектив, WEB-DLRip | LostFilm]

Nickolas3435

558 | 436

1.93 ГБ

В этой теме нет новых непрочитанных сообщений. Дневники Вампира / The Vampire Diaries [06x01-08 из 22] (Маркос Сига, Роб Харди, Дэвид Фон Энкен) [2014, ужасы, фэнтези, триллер, драма, мелодрама, детектив, WEB-DLRip | LostFilm]

Nickolas3435

277 | 296

3.54 ГБ

В этой теме нет новых непрочитанных сообщений. Дневники Вампира / The Vampire Diaries [06x01-05 из 22] (Маркос Сига, Роб Харди, Дэвид Фон Энкен) [2014, ужасы, фэнтези, триллер, драма, мелодрама, детектив, WEB-DLRip | LostFilm]

Nickolas3435

264 | 205

2.33 ГБ

В этой теме нет новых непрочитанных сообщений. Объятия вампира / Embrace Of The Vampire [Ужасы, 2013] HDRip, Avo

salma3

65 | 4

1.43 ГБ

В этой теме нет новых непрочитанных сообщений. Дневники Вампира / The Vampire Diaries / 7 сезон 1-22 серии из 22 (Маркос Сига, Роб Харди, Дэвид Фон Энкен, Дж. Миллер Тобин) [2015, ужасы, фэнтези, триллер, драма, мелодрама, детектив, WEB-DLRip | LostFilm]

Dracon

204 | 218

8.29 ГБ


СообщениеДобавлено: 15 дек 2013, 21:54 

Не в сети
Супермодератор
Аватара пользователя
Дата регистрации:
15 фев 2012, 16:44
Возраст: 27
Спасибо: 5139 / 2089
Сообщения: 17411
Приятного просмотра!

_________________


Вернуться к началу
 Профиль Отправить личное сообщение  
 
Начать новую тему Ответить на тему  [ Сообщений: 2 ] 




Для Мосгорсуда, Роскомнадзора и рекламодателей:: mosgorsud-torrent[собачка]yandex.ru