Торрент файл
скачать торрент магнет ссылка Добавлен: 14 дек 2013, 15:14
Размер: 1.46 ГБ
Сидеров: 12
Личеров: 4
Статус: (salma3)
Автор

СообщениеДобавлено: 14 дек 2013, 15:14 

В сети
Супермодератор
Аватара пользователя
Дата регистрации:
15 фев 2012, 16:44
Возраст: 27
Спасибо: 5121 / 2089
Сообщения: 17282
Пуленепробиваемый / Bulletproof

Год выпуска: 1988
Жанр: Боевик
Режиссер: Стив Карвер

В ролях: Гэри Бьюзи, Дарлэнн Флюгел, Генри Сильва, Талмус Расулала, Л. К. Джонс, Рене Энрикес, Миллс Уотсон, Джеймс Андроника, Р.Г. Армстронг, Уильям Смит
Описание: Франк МакБэйн пережил за свою долгую службу в полиции множество опасных перестрелок. Часто его жизни грозила смертельная опасность, но он всегда оставался живым. За что и получил прозвище «пуленепробиваемый». И вот новое задание. Группе опасных террористов во главе с полковником Картиффом удалось захватить одно их последних достижений американской техники — пуленепробиваемый танк под названием «Раскат грома».



Страна: США
Продолжительность: 01:34:10
Перевод: Авторский (одноголосый закадровый) (Гаврилов)
Оригинальная аудиодорожка: Английская

Файл
Качество: DVDRip
Формат файла: AVI
Видео кодек: XviD
Аудио кодек: AC3
Видео: 640x480 (1.33:1), 23.976 fps, XviD ~1572 kbps avg, 0.21 bit/pixel
Аудио: #1: 48 kHz, AC3 2.0 ~192.00 kbps avg (RUS)
Аудио: #2: 48 kHz, AC3 6.0 ~448.00 kbps avg (ENG)

Общее
Полное имя : D:1АААПуленепробиваемый.avi
Формат : AVI
Формат/Информация : Audio Video Interleave
Размер файла : 1,46 Гбайт
Продолжительность : 1 ч. 34 м.
Общий поток : 2227 Кбит/сек
Программа кодирования : VirtualDubMod 1.5.10.2 (build 2540/release)
Библиотека кодирования : VirtualDubMod build 2540/release

Видео
Идентификатор : 0
Формат : MPEG-4 Visual
Профиль формата : Advanced Simple@L5
Параметр BVOP формата : 2
Параметр QPel формата : Нет
Параметр GMC формата : Без точки перехода
Параметр матрицы формата : Default (MPEG)
Режим смешивания : Сжатый битовый поток
Идентификатор кодека : XVID
Идентификатор кодека/Подсказка : XviD
Продолжительность : 1 ч. 34 м.
Битрейт : 1573 Кбит/сек
Ширина : 640 пикселей
Высота : 480 пикселей
Соотношение сторон : 4:3
Частота кадров : 23,976 кадра/сек
Цветовое пространство : YUV
Субдискретизация насыщенности : 4:2:0
Битовая глубина : 8 бит
Тип развёртки : Прогрессивная
Метод сжатия : С потерями
Бит/(Пиксели*Кадры) : 0.214
Размер потока : 1,03 Гбайт (71%)
Библиотека кодирования : XviD 1.2.1 (UTC 2008-12-04)

Аудио #1
Идентификатор : 1
Формат : AC-3
Формат/Информация : Audio Coding 3
Расширение режима : CM (complete main)
Параметр Endianness формата : Big
Идентификатор кодека : 2000
Продолжительность : 1 ч. 34 м.
Вид битрейта : Постоянный
Битрейт : 192 Кбит/сек
Каналы : 2 канала
Расположение каналов : Front: L R
Частота : 48,0 КГц
Битовая глубина : 16 бит
Метод сжатия : С потерями
Размер потока : 129 Мбайт (9%)
Выравнивание : Разделение по промежуткам
Продолжительность промежутка : 42 мс. (1,00 видеокадр)
Время предзагрузки промежутка : 500 мс.

Аудио #2
Идентификатор : 2
Формат : AC-3
Формат/Информация : Audio Coding 3
Расширение режима : CM (complete main)
Параметр Endianness формата : Big
Идентификатор кодека : 2000
Продолжительность : 1 ч. 34 м.
Вид битрейта : Постоянный
Битрейт : 448 Кбит/сек
Каналы : 2 канала
Расположение каналов : Front: L R
Частота : 48,0 КГц
Битовая глубина : 16 бит
Метод сжатия : С потерями
Размер потока : 302 Мбайт (20%)
Выравнивание : Разделение по промежуткам
Продолжительность промежутка : 42 мс. (1,00 видеокадр)
Время предзагрузки промежутка : 500 мс.




Релиз группа:Автор рипа:


_________________



реклама партнёра


Вернуться к началу
 Профиль Отправить личное сообщение  
 
   Похожие торренты   Автор   Торрент   Размер 
В этой теме нет новых непрочитанных сообщений. Пуленепробиваемый монах / Bulletproof Monk [Боевик, комедия, приключения, 2003] BDRip 1080p, Dub+Avo+Sub

salma3

85 | 15

7.74 ГБ

В этой теме нет новых непрочитанных сообщений. Снайпер. Пуленепробиваемый / Sniper: Bulletproof [документальный, 2011] IPTVRip, Avo

salma3

7 | 3

1.21 ГБ

В этой теме нет новых непрочитанных сообщений. Downspirit - Bulletproof [2012, Modern Hard Rock, MP3]

PriZraK

0 | 1

103.61 МБ

В этой теме нет новых непрочитанных сообщений. Городская Война / Yi dan hong chun [боевик, 1988] DVDRip, Avo

salma3

2 | 2

1.45 ГБ

В этой теме нет новых непрочитанных сообщений. Операция «Гадюка» / Viper [Боевик, драма, 1988] DVDRip, Avo

salma3

90 | 11

1.37 ГБ

В этой теме нет новых непрочитанных сообщений. Чайна О'Брайен / China O'Brien [Боевик, 1988] DVDRip, Avo

salma3

14 | 4

1.45 ГБ

В этой теме нет новых непрочитанных сообщений. Крысы джунглей / Jungle Rats [боевик, военный, 1988] DVDRip, Avo

salma3

90 | 15

1.46 ГБ


Начать новую тему Ответить на тему  [ 1 сообщение ] 




Для Мосгорсуда, Роскомнадзора и рекламодателей:: mosgorsud-torrent[собачка]yandex.ru