Торрент файл
скачать торрент магнет ссылка Добавлен: 12 дек 2013, 22:13
Размер: 1.06 ГБ
Сидеров: 439
Личеров: 28
Статус: (salma3)
Автор

СообщениеДобавлено: 12 дек 2013, 22:13 

Не в сети
Супермодератор
Аватара пользователя
Дата регистрации:
15 фев 2012, 16:44
Возраст: 27
Спасибо: 5139 / 2089
Сообщения: 17425
Рождественский Купидон / Christmas Cupid

Год выпуска: 2010
Жанр: Фэнтези, Комедия, Семейный
Режиссер: Джил Джангер

В ролях: Кристина Милиан, Эшли Бенсон, Джеки Гарри, Бургесс Дженкинс, Эшли Джонсон

Описание: Главная героиня, Слоан Спенсер, — влиятельный голливудский рекламщик, которую начинает преследовать призрак ее клиентки Кейтлин. За несколько дней до Рождества, Кейтлин и Слоан отправляются в путешествие во времени и встречают парней Слоан из прошлого, настоящего и будущего. Это странствие должно помочь ей обрести настоящую любовь.



Страна: США
Продолжительность: 01:25:22
Перевод: Полное дублирование Примечание: Отсутствует несколько минут перевода

Файл
Качество: DVDRip
Формат файла: AVI
Видео кодек: XviD
Аудио кодек: AC3
Видео: 640x360, (16:9), 23,976 fps, ~ 1575 Кбит/сек Качество видео не самое лучшее
Аудио: 44,1 kHz, AC-3, 2 ch (L,R), ~ 192 Кбит/сек


Общее
Полное имя : D:TORRENTSChristmas.Cupid.2010.DVDRip.XviD-rupeer.avi
Формат : AVI
Формат/Информация : Audio Video Interleave
Размер файла : 1,06 Гбайт
Продолжительность : 1 ч. 25 м.
Общий поток : 1776 Кбит/сек
Программа кодирования : Lavf52.39.1
Библиотека кодирования : VirtualDub build 35390/release

Видео
Идентификатор : 0
Формат : xvid
Идентификатор кодека : xvid
Продолжительность : 1 ч. 25 м.
Битрейт : 1575 Кбит/сек
Ширина : 640 пикс.
Высота : 360 пикс.
Соотношение сторон : 16:9
Частота кадров : 23,976 кадр/сек
Бит/(Пиксели*Кадры) : 0.285
Размер потока : 962 Мбайт (89%)

Аудио
Идентификатор : 1
Формат : AC-3
Формат/Информация : Audio Coding 3
Расширение режима : CM (complete main)
Идентификатор кодека : 2000
Продолжительность : 1 ч. 25 м.
Вид битрейта : Постоянный
Битрейт : 192 Кбит/сек
Канал(ы) : 2 канала(ов)
Расположение каналов : Front: L R
Частота : 44,1 КГц
Битовая глубина : 16 бит
Метод сжатия : С потерями
Задержка видео : 1 с. 916 мс.
Размер потока : 117 Мбайт (11%)
Выравнивание : Соединение по промежуткам
Продолжительность промежутка : 42 мс. (1,00 видеокадр)
Время предзагрузки промежутка : 522 ms

от R.G:


_________________



реклама партнёра


Вернуться к началу
 Профиль Отправить личное сообщение  
 
   Похожие торренты   Автор   Торрент   Размер 
В этой теме нет новых непрочитанных сообщений. Рождественский роман / A Christmas Romance [драма, мелодрама, комедия, семейный, 1994] DVDRip, Dvo [НТВ]

salma3

12 | 2

1.46 ГБ

В этой теме нет новых непрочитанных сообщений. Крампус: Рождественский дьявол / Krampus: The Christmas Devil [ужасы, боевик, триллер, 2013] HDRip, Avo

salma3

218 | 18

1.46 ГБ

В этой теме нет новых непрочитанных сообщений. Очень странное рождество / Рождество с волшебными родителями / A Fairly Odd Christmas (Сэвидж Стив Холланд) [2012, фэнтези, комедия, семейный, SATRip] DUB

Nickolas3435

35 | 6

1.08 ГБ

В этой теме нет новых непрочитанных сообщений. Ангел по соседству / Christmas Angel [комедия, мелодрама, семейный, 2012] DVDRip, Mvo [НТВ+]

Dracon

184 | 23

1.46 ГБ

В этой теме нет новых непрочитанных сообщений. A Very Brazzers Christmas 2 / Рождественский Brazzers 2 (Brazzers) (Alice March, Alicia Secrets, Ava Addams, Cathy Heaven, Dillion Harper...) [2014 г., Gonzo, Big Boobs, Threesomes, X-Mas, WEB-DL 404p]

friizze

80 | 38

3.7 ГБ

В этой теме нет новых непрочитанных сообщений. 12 Рождественских желаний / 12 Wishes of Christmas [фэнтези, комедия, 2011] DVDRip, Mvo [лицензия]

salma3

572 | 47

1.46 ГБ

В этой теме нет новых непрочитанных сообщений. 12 Рождественских желаний / 12 Wishes of Christmas [фэнтези, комедия, 2011] DVDRip-AVC, Mvo [лицензия]

salma3

76 | 7

1.46 ГБ


Начать новую тему Ответить на тему  [ 1 сообщение ] 




Для Мосгорсуда, Роскомнадзора и рекламодателей:: mosgorsud-torrent[собачка]yandex.ru