Торрент файл
скачать торрент магнет ссылка Добавлен: 11 дек 2013, 22:52
Размер: 1.37 ГБ
Сидеров: 12
Личеров: 3
Статус: (salma3)
Автор

СообщениеДобавлено: 11 дек 2013, 22:52 

В сети
Супермодератор
Аватара пользователя
Дата регистрации:
15 фев 2012, 16:44
Возраст: 27
Спасибо: 5121 / 2089
Сообщения: 17277
Зловещая сила / Grim

Год выпуска: 1995
Жанр: ужасы, фэнтези, триллер
Режиссер: Пол Мэтьюз / Paul Matthews

В ролях: Эммануэль Войе, Майкл Фицпатрик, Дэвид Кеннади, Кадамба Симмонс, Жюли ДеЙонг, Питер Трэглонд

Описание:
Любители гадать на колдовской доске пробудили к жизни страшного подземного тролля, который умел проходить сквозь стены. Тот выбирался по ночам из своей горной пещеры, похищал людей и прятал их у себя. Команда спелеологов спустилась под землю для исследований пещер и обнаружила убежище монстра. На свое несчастье…



Страна: Великобритания
Продолжительность:01:26:44
Перевод: Профессиональный (двухголосый, закадровый) [Рен тв]

Файл
Качество: DVDRip
Формат файла: AVI
Видео кодек: XviD
Аудио кодек: AC3
Видео: 640x480 (1.33:1), 25 fps, XviD build 50 ~2078 kbps avg, 0.27 bit/pixel
Аудио: Русский: 48 kHz, AC3 Dolby Digital, 2/0 (L,R) ch, ~192.00 kbps avg



General
Complete name : E:\Фильмы\Зловещая сила.1995.DVO.DVDRip.[tfile.ru].avi
Format : AVI
Format/Info : Audio Video Interleave
File size : 1.37 GiB
Duration : 1h 26mn
Overall bit rate : 2 280 Kbps
Writing application : VirtualDubMod 1.5.10.2 (build 2540/release)
Writing library : VirtualDubMod build 2540/release

Video
ID : 0
Format : MPEG-4 Visual
Format profile : Advanced Simple@L5
Format settings, BVOP : 1
Format settings, QPel : No
Format settings, GMC : No warppoints
Format settings, Matrix : Default (H.263)
Codec ID : XVID
Codec ID/Hint : XviD
Duration : 1h 26mn
Bit rate : 2 078 Kbps
Width : 640 pixels
Height : 480 pixels
Display aspect ratio : 4:3
Frame rate : 25.000 fps
Color space : YUV
Chroma subsampling : 4:2:0
Bit depth : 8 bits
Scan type : Progressive
Compression mode : Lossy
Bits/(Pixel*Frame) : 0.271
Stream size : 1.25 GiB (91%)
Writing library : XviD 1.2.1 (UTC 2008-12-04)

Audio
ID : 1
Format : AC-3
Format/Info : Audio Coding 3
Mode extension : CM (complete main)
Codec ID : 2000
Duration : 1h 25mn
Bit rate mode : Constant
Bit rate : 192 Kbps
Channel(s) : 6 channels
Channel positions : Front: L C R, Side: L R, LFE
Sampling rate : 48.0 KHz
Bit depth : 16 bits
Compression mode : Lossy
Stream size : 118 MiB (8%)
Alignment : Split accross interleaves
Interleave, duration : 40 ms (1.00 video frame)
Interleave, preload duration : 500 ms













_________________



реклама партнёра


Вернуться к началу
 Профиль Отправить личное сообщение  
 
   Похожие торренты   Автор   Торрент   Размер 
В этой теме нет новых непрочитанных сообщений. Зловещая луна / Bad Moon [ужасы, триллер, драма, детектив, 1996] WEB-DL 720p, Dub+Dvo

salma3

23 | 2

2.65 ГБ

В этой теме нет новых непрочитанных сообщений. Убежище / Hideaway [ужасы, фэнтези, триллер, 1995] DVDRip, Mvo

salma3

33 | 3

1.37 ГБ

В этой теме нет новых непрочитанных сообщений. Злая еда / Зловещая жраловка / Evil Feed [Ужасы, боевик, 2013] HDRip, avo

Dracon

233 | 6

766.76 МБ

В этой теме нет новых непрочитанных сообщений. Байки из склепа: Демон ночи / Tales from the Crypt: Demon Knight [ужасы, фэнтези, триллер, комедия, 1995] HDRip, Mvo [R5]

salma3

31 | 6

1.46 ГБ

В этой теме нет новых непрочитанных сообщений. Байки из склепа: Демон ночи / Tales from the Crypt: Demon Knight [ужасы, фэнтези, триллер, комедия, 1995] BDRip 1080p, mvo+avo+sub

salma3

53 | 8

7.75 ГБ

В этой теме нет новых непрочитанных сообщений. Первая сила / The First Power [Триллер, ужасы, 1990] BDRip, Avo [Гаврилов]

salma3

37 | 0

1.46 ГБ

В этой теме нет новых непрочитанных сообщений. Первая сила / The First Power [ужасы, триллер, криминал, 1990] BDRemux 1080p, Dvo+Avo+Sub

salma3

32 | 3

15.4 ГБ


Начать новую тему Ответить на тему  [ 1 сообщение ] 




Для Мосгорсуда, Роскомнадзора и рекламодателей:: mosgorsud-torrent[собачка]yandex.ru