Торрент файл
скачать торрент магнет ссылка Добавлен: 11 дек 2013, 10:52
Размер: 2.18 ГБ
Сидеров: 52
Личеров: 6
Статус: (Dracon)
Автор

СообщениеДобавлено: 11 дек 2013, 10:52 

Не в сети
Зам. Админа
Аватара пользователя
Дата регистрации:
02 дек 2010, 12:39
Спасибо: 12461 / 214
Сообщения: 27968
Год выпуска: 2013
Страна: США
Режиссер: Дени Вильнёв
Жанр: триллер, драма, криминал
Продолжительность: 02:33:09
Год выпуска: 2013

В ролях: Хью Джекман, Джейк Джилленхол, Виола Дэвис, Мария Белло, Терренс Ховард, Мелисса Лео, Пол Дано, Дилан Миннетт, Зои Борд, Эрин Герасимович

Описание: Келлер Довер сталкивается с самым большим кошмаром каждого родителя: его шестилетняя дочь пропала вместе с подругой. Время бежит, девочки не возвращаются, и паника достигает своего предела. Единственная зацепка — обветшалый фургончик, который был припаркован на их улице, когда девочки играли во дворе. Детектив Локки, возглавляющий расследование, арестовывает его водителя, Алекса Джонса, но вскоре полиция вынуждена его отпустить из-за нехватки улик. Полиция медлит, а обезумевший от горя отец берет дело в свои руки. Но как далеко готов зайти Келлер в поисках девочек?

Перевод: Авторский [Ю.Сербин]
Субтитры: Русские, английские (SDH + SDH-Colored)

Качество: BDRip-AVC
Формат:MKV
Видео: 1044x588 (16:9 ), 23,976 fps, AVC, х264, High@L4.1, ~ 1271 Кbps, 0.086 bit/pixel
Аудио #1: Русский:48 kHz, AC3 Dolby Digital, 3/2 (L,C,R,l,r) + LFE ch, 384.00 kbps [Авторский (одноголосый закадровый) [Ю.Сербин]]
Аудио #2: Английский:48 kHz, AC3 Dolby Digital, 3/2 (L,C,R,l,r) + LFE ch, 384.00 kbps [Оригинал]

Общее
Уникальный идентификатор : 214802660338195381166391747889863560544 (0xA1997CD1409865EE9688D2A92ACB8D60)
Полное имя : F:\Raznoe\Plennitcy.2013.AVO.BDRip.HELLYWOOD.mkv
Формат : Matroska
Размер файла : 2,18 Гбайт
Продолжительность : 2 ч. 33 м.
Общий поток : 2038 Кбит/сек
Название фильма : HELLYWOOD - rip by potroks
Дата кодирования : UTC 2013-12-10 20:16:56
Программа кодирования : mkvmerge v5.9.0 ('On The Loose') built on Dec 15 2012 16:39:58
Библиотека кодирования : libebml v1.3.0 + libmatroska v1.4.0

Видео
Идентификатор : 1
Формат : AVC
Формат/Информация : Advanced Video Codec
Профиль формата : High@L4.1
Параметр CABAC формата : Да
Параметр ReFrames формата : 13 кадров
Идентификатор кодека : V_MPEG4/ISO/AVC
Продолжительность : 2 ч. 33 м.
Битрейт : 1271 Кбит/сек
Ширина : 1044 пикс.
Высота : 588 пикс.
Соотношение сторон : 16:9
Частота кадров : 23,976 кадр/сек
Цветовое пространство : YUV
Подвыборка цветности : 4:2:0
Битовая глубина : 8 бит
Тип развёртки : Прогрессивная
Бит/(Пиксели*Кадры) : 0.086
Размер потока : 1,32 Гбайт (60%)
Заголовок : Prisoners
Библиотека кодирования : x264 core 130 r2273 b3065e6
Настройки программы : cabac=1 / ref=13 / deblock=1:-3:-2 / analyse=0x3:0x133 / me=umh / subme=11 / psy=1 / psy_rd=1.11:0.00 / mixed_ref=1 / me_range=48 / chroma_me=1 / trellis=2 / 8x8dct=1 / cqm=0 / deadzone=21,11 / fast_pskip=0 / chroma_qp_offset=-2 / threads=9 / lookahead_threads=8 / sliced_threads=0 / nr=0 / decimate=0 / interlaced=0 / bluray_compat=0 / constrained_intra=0 / bframes=14 / b_pyramid=2 / b_adapt=2 / b_bias=0 / direct=3 / weightb=1 / open_gop=0 / weightp=2 / keyint=250 / keyint_min=23 / scenecut=40 / intra_refresh=0 / rc_lookahead=60 / rc=2pass / mbtree=0 / bitrate=1271 / ratetol=1.0 / qcomp=0.70 / qpmin=0 / qpmax=69 / qpstep=4 / cplxblur=20.0 / qblur=0.5 / vbv_maxrate=20000 / vbv_bufsize=25000 / nal_hrd=none / ip_ratio=1.35 / pb_ratio=1.25 / aq=1:0.70
Язык : English

Аудио #1
Идентификатор : 2
Формат : AC-3
Формат/Информация : Audio Coding 3
Расширение режима : CM (complete main)
Идентификатор кодека : A_AC3
Продолжительность : 2 ч. 33 м.
Вид битрейта : Постоянный
Битрейт : 384 Кбит/сек
Каналы : 6 каналов
Расположение каналов : Front: L C R, Side: L R, LFE
Частота : 48,0 КГц
Битовая глубина : 16 бит
Метод сжатия : С потерями
Размер потока : 421 Мбайт (19%)
Заголовок : AVO | DD 5.1 @ 384 kbps - Ю.Сербин
Язык : Russian

Аудио #2
Идентификатор : 3
Формат : AC-3
Формат/Информация : Audio Coding 3
Расширение режима : CM (complete main)
Идентификатор кодека : A_AC3
Продолжительность : 2 ч. 33 м.
Вид битрейта : Постоянный
Битрейт : 384 Кбит/сек
Каналы : 6 каналов
Расположение каналов : Front: L C R, Side: L R, LFE
Частота : 48,0 КГц
Битовая глубина : 16 бит
Метод сжатия : С потерями
Размер потока : 421 Мбайт (19%)
Заголовок : Original | DD 5.1 @ 384 kbps
Язык : English

Текст #1
Идентификатор : 4
Формат : UTF-8
Идентификатор кодека : S_TEXT/UTF8
Идентификатор кодека/Информация : UTF-8 Plain Text
Язык : Russian

Текст #2
Идентификатор : 5
Формат : UTF-8
Идентификатор кодека : S_TEXT/UTF8
Идентификатор кодека/Информация : UTF-8 Plain Text
Заголовок : SDH-Colored
Язык : English

Текст #3
Идентификатор : 6
Формат : UTF-8
Идентификатор кодека : S_TEXT/UTF8
Идентификатор кодека/Информация : UTF-8 Plain Text
Заголовок : SDH
Язык : English

Меню
00:00:00.000 : en:00:00:00.000
00:08:50.780 : en:00:08:50.780
00:19:52.149 : en:00:19:52.149
00:30:18.942 : en:00:30:18.942
00:40:23.838 : en:00:40:23.838
00:49:36.974 : en:00:49:36.974
00:59:27.898 : en:00:59:27.898
01:08:24.726 : en:01:08:24.726
01:17:29.103 : en:01:17:29.103
01:29:17.394 : en:01:29:17.394
01:41:34.797 : en:01:41:34.797
01:51:36.815 : en:01:51:36.815
01:59:39.255 : en:01:59:39.255
02:11:46.690 : en:02:11:46.690
02:19:50.841 : en:02:19:50.841
02:25:54.287 : en:02:25:54.287












реклама партнёра


Вернуться к началу
 Профиль  
 
   Похожие торренты   Автор   Торрент   Размер 
В этой теме нет новых непрочитанных сообщений. Пленницы / Prisoners [Триллер, драма, криминал, 2013] BDRip 720p, Dub+Sub [Студия Пифагор!]

Dracon

4 | 2

6.94 ГБ

В этой теме нет новых непрочитанных сообщений. Пленницы / Prisoners [Триллер, драма, криминал, 2013] BDRip 1080p, Dub+Sub [Студия Пифагор!]

Dracon

11 | 3

9.5 ГБ

В этой теме нет новых непрочитанных сообщений. Пленницы / Prisoners [Триллер, драма, криминал, 2013] BDRemux 1080p, Avo+Sub

Dracon

0 | 2

29.93 ГБ

В этой теме нет новых непрочитанных сообщений. Пленницы / Prisoners (Дени Вильнёв) [2013, триллер, драма, криминал, HDRip] Dub

Nickolas3435

1361 | 24

2.05 ГБ

В этой теме нет новых непрочитанных сообщений. Пленницы / Prisoners [Триллер, драма, криминал, 2013] HDRip, Dub [Студия Пифагор]

Dracon

845 | 22

1.45 ГБ

В этой теме нет новых непрочитанных сообщений. Ча-ча-ча / Cha cha cha [Триллер, драма, криминал, 2013] BDRip, avo

Dracon

481 | 31

1.1 ГБ

В этой теме нет новых непрочитанных сообщений. Кливлендские пленницы / Cleveland Abduction (Жак Дуайон) [криминал, 2015] WEB-DLRip, Mvo

Dracon

0 | 1

699.96 МБ


Начать новую тему Ответить на тему  [ 1 сообщение ] 




Для Мосгорсуда, Роскомнадзора и рекламодателей:: mosgorsud-torrent[собачка]yandex.ru