Торрент файл
скачать торрент магнет ссылка Добавлен: 09 дек 2013, 22:33
Размер: 1.46 ГБ
Сидеров: 24
Личеров: 2
Статус: (salma3)
Автор

СообщениеДобавлено: 09 дек 2013, 22:33 

В сети
Супермодератор
Аватара пользователя
Дата регистрации:
15 фев 2012, 16:44
Возраст: 27
Спасибо: 5143 / 2090
Сообщения: 17495
Зодчий теней / Shadow Builder

Год выпуска: 1998
Жанр: ужасы, триллер
Режиссер: Джэми Диксон / Jamie Dixon

В ролях: Майкл Рукер, Лесли Хоуп, Шоун Томпсон, Эндрю Джексон, Кевин Зегерс, Тони Тодд, Hardee T. Lineham, Кэтрин Брухайер, Гордон Майкл Вулветт, Джеймс Б. Дуглас

Описание:
И Бог сказал: Да будет свет. И стал свет. И вместе с ним появилась тень. Тысячи лет они молились о ее господстве кровавыми жертвоприношениями. И Зодчий пришел в дом. Стаи черных гончих сошли с неба и гнались за людьми. Ночь выросла над городом. Но свет воспрял против тьмы. И чистая душа Вассэя стала мечом Господним в предрассветный час.



Страна: США, Канада
Продолжительность: 01:36:30
Перевод: Профессиональный (двухголосый, закадровый)

Файл
Качество: DVDRip
Формат файла: AVI
Видео кодек: XviD
Аудио кодек: AC3
Видео: 688x512 (1.34:1), 25 fps, XviD build 65 ~1769 kbps avg, 0.20 bit/pixel
Аудио: Русский 48 kHz ,AC3 Dolby Digital, 3/2 (L,C,R,l,r) + LFE ch, 384 Kbps [двухголосый]


General
Complete name : E:\Фильмы\Зодчий теней.1998.DVDRip.DVO.[tfile.ru].avi
Format : AVI
Format/Info : Audio Video Interleave
File size : 1.46 GiB
Duration : 1h 36mn
Overall bit rate : 2 163 Kbps
Writing application : VirtualDubMod 1.5.10.2 (build 2540/release)
Writing library : VirtualDubMod build 2540/release

Video
ID : 0
Format : MPEG-4 Visual
Format profile : Advanced Simple@L5
Format settings, BVOP : 1
Format settings, QPel : No
Format settings, GMC : No warppoints
Format settings, Matrix : Custom
Codec ID : XVID
Codec ID/Hint : XviD
Duration : 1h 36mn
Bit rate : 1 769 Kbps
Width : 688 pixels
Height : 512 pixels
Display aspect ratio : 4:3
Frame rate : 25.000 fps
Color space : YUV
Chroma subsampling : 4:2:0
Bit depth : 8 bits
Scan type : Progressive
Compression mode : Lossy
Bits/(Pixel*Frame) : 0.201
Stream size : 1.19 GiB (82%)
Writing library : XviD 65

Audio
ID : 1
Format : AC-3
Format/Info : Audio Coding 3
Mode extension : CM (complete main)
Codec ID : 2000
Duration : 1h 36mn
Bit rate mode : Constant
Bit rate : 384 Kbps
Channel(s) : 6 channels
Channel positions : Front: L C R, Side: L R, LFE
Sampling rate : 48.0 KHz
Bit depth : 16 bits
Compression mode : Lossy
Stream size : 265 MiB (18%)
Alignment : Split accross interleaves
Interleave, duration : 40 ms (1.00 video frame)
Interleave, preload duration : 500 ms














_________________



реклама партнёра


Вернуться к началу
 Профиль Отправить личное сообщение  
 
   Похожие торренты   Автор   Торрент   Размер 
В этой теме нет новых непрочитанных сообщений. Час теней / Shadow Hours [триллер, драма, 2000] DVDRip, Mvo

salma3

6 | 2

1.32 ГБ

В этой теме нет новых непрочитанных сообщений. Колыбель теней / Le berceau des ombres [ужасы, триллер, 2015] DVDRip, Dvo

salma3

35 | 1

752.97 МБ

В этой теме нет новых непрочитанных сообщений. Тень внутри / The Shadow Within [ужасы, триллер, 2007] DVDRip, Avo

salma3

94 | 52

1.46 ГБ

В этой теме нет новых непрочитанных сообщений. Падает тень / Falls the Shadow [ужасы, боевик, триллер, 2011] DVDRip, Mvo [НТВ+]

salma3

50 | 4

1.37 ГБ

В этой теме нет новых непрочитанных сообщений. Нападение на Остров Дьявола 2: Гора Смерти / Shadow Warriors II: Hunt for the Death Merchant [Боевик, 1998] DVDRip, Mvo

salma3

21 | 7

1.37 ГБ

В этой теме нет новых непрочитанных сообщений. Стрейнджлэнд / Strangeland [ужасы, триллер, 1998] DVDRip, Avo

salma3

29 | 3

1.37 ГБ

В этой теме нет новых непрочитанных сообщений. Падает тень / Zombie Warz: Falls the Shadow [ужасы, боевик, триллер, 2011] BDRip 1080p, Dvo [НТВ+]

salma3

9 | 2

7.07 ГБ


Начать новую тему Ответить на тему  [ 1 сообщение ] 




Для Мосгорсуда, Роскомнадзора и рекламодателей:: mosgorsud-torrent[собачка]yandex.ru