Торрент файл
скачать торрент магнет ссылка Добавлен: 08 дек 2013, 21:04
Размер: 1.46 ГБ
Сидеров: 9
Личеров: 3
Статус: (salma3)
Автор

СообщениеДобавлено: 08 дек 2013, 21:04 

Не в сети
Супермодератор
Аватара пользователя
Дата регистрации:
15 фев 2012, 16:44
Возраст: 28
Спасибо: 6593 / 2145
Сообщения: 44208
Суп с капустой / La soupe aux choux

Год выпуска: 1981
Жанр: Комедия
Режиссер: Жан Жиро / Jean Girault

В ролях: Луи де Фюнес / Louis de Funès, Жак Карме / Jean Carmet, Жак Виллере / Jacques Villeret, Клод Жансак / Claude Gensac, Анри Жене / Henri Génès, Марко Перрен / Marco Perrin, Кристин Дежо / Christine Dejoux и др.

Описание: Глод (Луи де Фюнес) и Бомбе (Жан Карме) доживают свои последние деньки далеко за пределами французского поселка городского типа, в крестьянском подворье. Им чужды все преимущества современной цивилизации, электричество и все такое. В их подсобном хозяйстве есть все необходимое для жизнедеятельности, они особенно гордятся колодезной водой, натуральной, произрастающей поблизости капустой, а также изготовленными вручную различными спиртными напитками. Это чрезмерное увлечение и создало предпосылки для их встречи с залетным инопланетянином. Выйдя на улицу глубокой ночью, после очередного возлияния, издавая при этом, как бы поделикатней выразиться, в общем с их слов: пукали, прогневали небеса и чуть погодя, завалясь спать, были разбужены ярким свечением. Короче. Инопланетянин заморозил Бомбе. Глод любезно принял инопланетянина. Инопланетянину понравился суп с капустой. Инопланетянин стал прилетать еще, его начальству также понравился суп. Попутно инопланетянин воскресил умершую жену Глода в возрасте девушки, та развернула бурную деятельность, в итоге покинула родные пенаты. Новое несчастье - пришел мэр городка и заявил о его расширении за счет прилегающих территорий, в частности за счет дорогого сердцу Глода и Бомбе поместья. В это время отношения Глода и инопланетянина зашли настолько далеко, что он предложил престарелым отправиться на его планету, где им была бы обеспечена почетная старость на десятки лет (руководство планеты и сам инопланетянин попали в зависимость от капустного супа). После некоторых колебаний старики согласились и вместе с кошкой, а также с прилегающей территорией (постройки, грядки...) отправились начинать новую жизнь.



Страна: Франция
Продолжительность: 01:37:47
Перевод: Профессиональный (многоголосый, закадровый) [ТК НТВ]

Качество: DVDRip
Формат: AVI
Видео кодек: XviD
Аудио кодек: AC3
Видео: 720x304 (2.37:1), 25 fps, XviD build 50 ~1931 kbps avg, 0.35 bit/pixel
Аудио: 48 kHz, AC3 Dolby Digital, 2/0 (L,R) ch, ~192 kbps

D:Мои рипыLa.Soupe.Aux.Choux.DVDRip.dexter_lex.avi
General
Complete name : D:Мои рипыLa.Soupe.Aux.Choux.DVDRip.dexter_lex.avi
Format : AVI
Format/Info : Audio Video Interleave
File size : 1.46 GiB
Duration : 1h 37mn
Overall bit rate : 2 133 Kbps
Writing application : VirtualDubMod 1.5.10.3 | http://www.virtualdub-fr.org || (build 2550/release)
Writing library : VirtualDubMod build 2550/release
Video #0
ID : 0
Format : MPEG-4 Visual
Format profile : Advanced Simple@L5
Format settings, BVOP : 1
Format settings, QPel : No
Format settings, GMC : No warppoints
Format settings, Matrix : Custom
Codec ID : XVID
Codec ID/Hint : XviD
Duration : 1h 37mn
Bit rate : 1 932 Kbps
Width : 720 pixels
Height : 304 pixels
Display aspect ratio : 2.35:1
Frame rate : 25.000 fps
Color space : YUV
Chroma subsampling : 4:2:0
Bit depth : 8 bits
Scan type : Progressive
Compression mode : Lossy
Bits/(Pixel*Frame) : 0.353
Stream size : 1.32 GiB (91%)
Writing library : XviD 1.2.1 (UTC 2008-12-04)
Audio #1
ID : 1
Format : AC-3
Format/Info : Audio Coding 3
Mode extension : CM (complete main)
Codec ID : 2000
Duration : 1h 37mn
Bit rate mode : Constant
Bit rate : 192 Kbps
Channel(s) : 2 channels
Channel positions : Front: L R
Sampling rate : 48.0 KHz
Bit depth : 16 bits
Compression mode : Lossy
Stream size : 134 MiB (9%)
Alignment : Split accross interleaves
Interleave, duration : 40 ms (1.00 video frame)
Interleave, preload duration : 500 ms

Раздача от:


_________________
Проголосуй за трекер Открытый торрент трекер - RUS-MEDIA.ORG

Проголосуй Открытый торрент трекер - RUS-MEDIA.ORG



реклама партнёра


Вернуться к началу
 Профиль Отправить личное сообщение  
 
   Похожие торренты   Автор   Торрент   Размер 
В этой теме нет новых непрочитанных сообщений. Суп из капусты / La soupe aux choux [Фантастика, Комедия, 1981] BDRemux 1080p, Mvo

salma3

79 | 46

13.37 ГБ

В этой теме нет новых непрочитанных сообщений. Суп из капусты / La soupe aux choux [фантастика, комедия, 1981] BDRip 1080p, Mvo

salma3

52 | 8

6.4 ГБ

В этой теме нет новых непрочитанных сообщений. Суп из капусты / La soupe aux choux (1981) BDRip 720p | Р

salma3

99 | 33

2.38 ГБ

В этой теме нет новых непрочитанных сообщений. Сумасшедшие карабинеры / I carabbimatti [комедия, 1981] DVDRip, Avo

salma3

15 | 2

1.37 ГБ

В этой теме нет новых непрочитанных сообщений. Спагетти в полночь / Spaghetti a mezzanotte [Комедия, 1981] DVDRip-AVC, Mvo

salma3

47 | 12

3.59 ГБ

В этой теме нет новых непрочитанных сообщений. Безумно влюбленный / Innamorato pazzo [комедия, мелодрама, 1981] DVDRip, Mvo

salma3

278 | 14

1.45 ГБ

В этой теме нет новых непрочитанных сообщений. Современный роман / Modern Romance [мелодрама, комедия, 1981] DVDRip, DVO

salma3

39 | 13

1.42 ГБ


Начать новую тему Ответить на тему  [ 1 сообщение ] 




Для Мосгорсуда, Роскомнадзора и рекламодателей:: mosgorsud-torrent[собачка]yandex.ru