Торрент файл
скачать торрент магнет ссылка Добавлен: 08 дек 2013, 16:17
Размер: 2.88 ГБ
Сидеров: 0
Личеров: 4
Автор

СообщениеДобавлено: 08 дек 2013, 16:18 

Не в сети
Зам. Админа
Аватара пользователя
Дата регистрации:
02 дек 2010, 12:39
Спасибо: 12612 / 214
Сообщения: 28049
Год выхода: 2013
Жанр: комедия
Режиссер: Деннис Дуган
В ролях:
Адам Сэндлер, Кевин Джеймс, Крис Рок, Дэвид Спейд, Сальма Хайек, Майя Рудольф, Мария Белло, Ник Свардсон, Стив Бушеми, Колин Куинн

О фильме:
После того как Ленни Федер переезжает с семьей обратно в родной город, он и его друзья извлекут немало уроков, когда их дети окончат школу…



Выпущено: США / Columbia Pictures, Happy Madison Productions, Sony Pictures Entertainment (SPE)
Продолжительность: 01:40:58
Озвучивание: Дублированное

Исходник: Blu-ray
Качество: BDRip 720p
Формат: AVI
Видео: Xvid 1280x720 23.976fps 3630kbps [Video 0]
Аудио: Dolby AC3 48000Hz 6ch 448kbps
Семпл
General
Complete name : D:\Фильмы !\Одноклассники 2 BDRip-AVI 720p.avi
Format : AVI
Format/Info : Audio Video Interleave
Format profile : OpenDML
File size : 2.88 GiB
Duration : 1h 40mn
Overall bit rate : 4 088 Kbps
Writing application : XviD4PSP 6.0 / 53.6.0

Video
ID : 0
Format : MPEG-4 Visual
Format profile : Advanced Simple@L5
Format settings, BVOP : Yes
Format settings, QPel : No
Format settings, GMC : 3 warppoints
Format settings, Matrix : Default (H.263)
Codec ID : XVID
Codec ID/Hint : XviD
Duration : 1h 40mn
Bit rate : 3 631 Kbps
Width : 1 280 pixels
Height : 720 pixels
Display aspect ratio : 16:9
Frame rate : 23.976 fps
Color space : YUV
Chroma subsampling : 4:2:0
Bit depth : 8 bits
Scan type : Progressive
Compression mode : Lossy
Bits/(Pixel*Frame) : 0.164
Stream size : 2.56 GiB (89%)
Writing library : XviD 64

Audio
ID : 1
Format : AC-3
Format/Info : Audio Coding 3
Mode extension : CM (complete main)
Format settings, Endianness : Big
Codec ID : 2000
Duration : 1h 40mn
Bit rate mode : Constant
Bit rate : 448 Kbps
Channel(s) : 6 channels
Channel positions : Front: L C R, Side: L R, LFE
Sampling rate : 48.0 KHz
Bit depth : 16 bits
Compression mode : Lossy
Stream size : 324 MiB (11%)
Alignment : Aligned on interleaves
Interleave, duration : 32 ms (0.77 video frame)







реклама партнёра


Вернуться к началу
 Профиль  
 
   Похожие торренты   Автор   Торрент   Размер 
В этой теме нет новых непрочитанных сообщений. Зачётный препод / Fack ju Gohte [комедия, 2013] BDRip 720p, Dub [Лицензия]

Dracon

33 | 4

7.99 ГБ

В этой теме нет новых непрочитанных сообщений. Инструкции не прилагаются / No se Aceptan Devoluciones [драма, комедия, 2013] BDRip 720p, Mvo+Sub [Лицензия]

Dracon

132 | 4

4.26 ГБ

В этой теме нет новых непрочитанных сообщений. Любовь в квадрате / Des gens qui s'embrassent [драма, комедия, 2013] BDRip 720p, Mvo [Лицензия]

Dracon

54 | 3

3.78 ГБ

В этой теме нет новых непрочитанных сообщений. Люблю твою жену / The Right Kind of Wrong [мелодрама, комедия, 2013] BDRip 720p, Dub [лицензия]

Dracon

128 | 8

4.24 ГБ

В этой теме нет новых непрочитанных сообщений. Мечты сбываются! / One Chance [драма, комедия, мелодрама, биография, 2013] BDRip 720p, Mvo [Лицензия]

Dracon

12 | 5

4.7 ГБ

В этой теме нет новых непрочитанных сообщений. Опасная иллюзия / The Necessary Death of Charlie Countryman [боевик, мелодрама, комедия, 2013] BDRip 720p, Dub+Sub [Лицензия]

Dracon

142 | 4

5.14 ГБ

В этой теме нет новых непрочитанных сообщений. Волк с Уолл-стрит / The Wolf of Wall Street [драма, комедия, криминал, биография, 2013] BDRip 720p, Dub+Sub [лицензия]

Dracon

3 | 4

9.29 ГБ


Начать новую тему Ответить на тему  [ 1 сообщение ] 




Для Мосгорсуда, Роскомнадзора и рекламодателей:: mosgorsud-torrent[собачка]yandex.ru