Торрент файл
скачать торрент магнет ссылка Добавлен: 08 дек 2013, 15:51
Размер: 2.94 ГБ
Сидеров: 3
Личеров: 1
Автор

СообщениеДобавлено: 08 дек 2013, 15:51 

Не в сети
Зам. Админа
Аватара пользователя
Дата регистрации:
02 дек 2010, 12:39
Спасибо: 12461 / 214
Сообщения: 27968
Год выпуска: 2013
Жанр: Фантастика, боевик, триллер, драма
Выпущено: США, Media Rights Capital, QED International, Simon Kinberg Productions, Sony Pictures Entertainment (SPE), TriStar Pictures
Режиссер: Нил Бломкамп
В ролях: Мэтт Дэймон, Джоди Фостер, Шарлто Копли, Алиси Брага, Диего Луна, Вагнер Моура, Уильям Фихтнер, Карли Поуп, Майкл Шэнкс, Талиса Сото

О фильме: В 2154 году существует два класса людей: очень богатые, живущие на чистой, созданной руками человека, космической станции под названием Элизиум и остальные, живущие на перенаселённой разрушенной Земле. Безжалостный правительственный чиновник Министр Роудс не остановится ни перед чем для применения анти-иммиграционных законов и сохранения роскошного образа жизни граждан Элизиума. Когда неудачника Макса загоняют в угол, он соглашается взять на себя сложную миссию, которая в случае успеха не только спасёт ему жизнь, но и может привести к равенству этих поляризованных миров.

Исходник: Blu-ray
Качество: BDRip 720p
Формат: AVI
Видео: Xvid 1280x720 23.976fps 2925kbps
Аудио: Dolby AC3 48000Hz 6ch 448kbps [Русский]
Аудио: Dolby AC3 48000Hz 6ch 448kbps [Украинский]
Продолжительность: 01:49:04
Перевод: Дублированный [лицензия]
Субтитры: Нет

Семпл
General
Complete name : D:\Фильмы !\Элизиум BDRip-AVI 720p.avi
Format : AVI
Format/Info : Audio Video Interleave
Format profile : OpenDML
File size : 2.94 GiB
Duration : 1h 49mn
Overall bit rate : 3 837 Kbps
Writing application : XviD4PSP 6.0 / 53.6.0

Video
ID : 0
Format : MPEG-4 Visual
Format profile : Advanced Simple@L5
Format settings, BVOP : Yes
Format settings, QPel : No
Format settings, GMC : 3 warppoints
Format settings, Matrix : Default (H.263)
Codec ID : XVID
Codec ID/Hint : XviD
Duration : 1h 49mn
Bit rate : 2 926 Kbps
Width : 1 280 pixels
Height : 720 pixels
Display aspect ratio : 16:9
Frame rate : 23.976 fps
Color space : YUV
Chroma subsampling : 4:2:0
Bit depth : 8 bits
Scan type : Progressive
Compression mode : Lossy
Bits/(Pixel*Frame) : 0.132
Stream size : 2.24 GiB (76%)
Writing library : XviD 64

Audio #1
ID : 1
Format : AC-3
Format/Info : Audio Coding 3
Mode extension : CM (complete main)
Format settings, Endianness : Big
Codec ID : 2000
Duration : 1h 49mn
Bit rate mode : Constant
Bit rate : 448 Kbps
Channel(s) : 6 channels
Channel positions : Front: L C R, Side: L R, LFE
Sampling rate : 48.0 KHz
Bit depth : 16 bits
Compression mode : Lossy
Stream size : 351 MiB (12%)
Alignment : Aligned on interleaves
Interleave, duration : 32 ms (0.77 video frame)

Audio #2
ID : 2
Format : AC-3
Format/Info : Audio Coding 3
Mode extension : CM (complete main)
Format settings, Endianness : Big
Codec ID : 2000
Duration : 1h 49mn
Bit rate mode : Constant
Bit rate : 448 Kbps
Channel(s) : 6 channels
Channel positions : Front: L C R, Side: L R, LFE
Sampling rate : 48.0 KHz
Bit depth : 16 bits
Compression mode : Lossy
Stream size : 351 MiB (12%)
Alignment : Aligned on interleaves
Interleave, duration : 32 ms (0.77 video frame)








реклама партнёра


Вернуться к началу
 Профиль  
 
   Похожие торренты   Автор   Торрент   Размер 
В этой теме нет новых непрочитанных сообщений. Элизиум / Elysium [фантастика, фэнтези, боевик, 2002] HDRip, Dub

salma3

22 | 5

1.46 ГБ

В этой теме нет новых непрочитанных сообщений. Война миров Z / World War Z [Ужасы, фантастика, боевик, триллер, драма, 2013] BDRip 720p, Dub+Sub [UNRATED | Лицензия]

hobbit1021

138 | 11

4.38 ГБ

В этой теме нет новых непрочитанных сообщений. Колония / The Colony [Фантастика, боевик, триллер, 2013] BDRip 720p, Dub+Sub [Лицензия]

Dracon

90 | 14

5 ГБ

В этой теме нет новых непрочитанных сообщений. Джо / Joe [боевик, триллер, драма, криминал, 2013] BDRip 720p, Mvo+Sub [лицензия]

Dracon

674 | 31

5.83 ГБ

В этой теме нет новых непрочитанных сообщений. Побудь в моей шкуре / Under the Skin [фантастика, триллер, драма, 2013] BDRip 720p, Mvo [лицензия]

Dracon

68 | 3

5.01 ГБ

В этой теме нет новых непрочитанных сообщений. Голодные игры: И вспыхнет пламя / The Hunger Games: Catching Fire [фантастика, боевик, триллер, приключения, 2013] BDRip 720p, Dub+Sub [Лицензия]

Dracon

323 | 12

6.44 ГБ

В этой теме нет новых непрочитанных сообщений. Два ствола / 2 Guns [боевик, триллер, драма, комедия, 2013] BDRip 720p, Dub [Лицензия], Mvo+Avo+Sub

Dracon

91 | 13

8.96 ГБ


СообщениеДобавлено: 08 дек 2013, 20:07 

Не в сети
Дата регистрации:
02 май 2013, 21:59
Спасибо: 0 / 0
Сообщения: 53
пятёра будет :)


Вернуться к началу
 Профиль Отправить личное сообщение  
 

СообщениеДобавлено: 08 дек 2013, 20:17 

Не в сети
Зам. Админа
Аватара пользователя
Дата регистрации:
02 дек 2010, 12:39
Спасибо: 12461 / 214
Сообщения: 27968
kirill76 писал(а):
пятёра будет :)

Какая пятёра? не понимаю :unknown:


Вернуться к началу
 Профиль  
 

СообщениеДобавлено: 08 дек 2013, 21:07 

Не в сети
Супермодератор
Аватара пользователя
Дата регистрации:
15 фев 2012, 16:44
Возраст: 27
Спасибо: 5143 / 2090
Сообщения: 17475
Dracon писал(а):
kirill76 писал(а):
пятёра будет :)

Какая пятёра? не понимаю :unknown:

наверно DVD5 :)

_________________


Вернуться к началу
 Профиль Отправить личное сообщение  
 
Начать новую тему Ответить на тему  [ Сообщений: 4 ] 




Для Мосгорсуда, Роскомнадзора и рекламодателей:: mosgorsud-torrent[собачка]yandex.ru