Торрент файл
скачать торрент магнет ссылка Добавлен: 08 дек 2013, 00:06
Размер: 1.46 ГБ
Сидеров: 42
Личеров: 4
Статус: (salma3)
Автор

СообщениеДобавлено: 08 дек 2013, 00:06 

Не в сети
Супермодератор
Аватара пользователя
Дата регистрации:
15 фев 2012, 16:44
Возраст: 27
Спасибо: 5130 / 2089
Сообщения: 17350
Один в темноте / Alone in the Dark

Год выпуска: 2005
Жанр: ужасы, фэнтези, боевик
Режиссер: Уве Болл / Uwe Boll

В ролях: Кристиан Слэйтер, Тара Рид, Стивен Дорфф, Фрэнк С. Тернер, Мэттью Уолкер, Уилл Сэндерсон, Марк Эчесон, Даррен Шахлави, Карин Коновал, Крэйг Брунански

Описание:
Частный детектив Эдвард Карнби — специалист по паранормальным явлениям, пытаясь найти истинную причину смерти своего друга, сталкивается со множеством необъяснимых загадок. Расследование приводит детектива на «Остров Теней», где Карнби оказывается перед лицом смертельной опасности, грозящей не только ему, но и всему миру.
Демоны тьмы жаждут власти над миром. Один Карнби бессилен против нечисти. И тогда к детективу присоединяется его бывшая возлюбленная Эйлин, гениальный учёный-антрополог с фантастической памятью, очаровательное юное создание.
Но главная опасность впереди — встреча с коварной царицей, злым духом, способным незаметно подчинить себе душу и тело любого смертного.



Страна: Канада, Германия, США
Продолжительность: 01:39:32
Перевод: Профессиональный (двухголосый, закадровый) [R5]

Файл
Качество: HDRip
Формат файла: AVI
Видео кодек: XviD
Аудио кодек: AC3
Видео: 720x400 (1.80:1), 23.976 fps, XviD build 47 ~1708 kbps avg, 0.25 bit/pixel
Аудио: Русский: 48 kHz, AC3 Dolby Digital, 3/2 (L,C,R,l,r) + LFE ch, ~384.00 kbps avg

В фильме есть несколько моментов без перевода. Это связано с тем, что здесь более полная версия, чем выходила в России.


General
Complete name : E:\Фильмы\Один в темноте.2005.HDRip.DVO.[tfile.ru].avi
Format : AVI
Format/Info : Audio Video Interleave
File size : 1.46 GiB
Duration : 1h 39mn
Overall bit rate : 2 102 Kbps
Writing application : VirtualDubMod 1.5.10.2 (build 2540/release)
Writing library : VirtualDubMod build 2540/release

Video
ID : 0
Format : MPEG-4 Visual
Format profile : Advanced Simple@L5
Format settings, BVOP : 1
Format settings, QPel : No
Format settings, GMC : No warppoints
Format settings, Matrix : Default (H.263)
Codec ID : XVID
Codec ID/Hint : XviD
Duration : 1h 39mn
Bit rate : 1 709 Kbps
Width : 720 pixels
Height : 400 pixels
Display aspect ratio : 16:9
Frame rate : 23.976 fps
Color space : YUV
Chroma subsampling : 4:2:0
Bit depth : 8 bits
Scan type : Progressive
Compression mode : Lossy
Bits/(Pixel*Frame) : 0.247
Stream size : 1.19 GiB (81%)
Writing library : XviD 1.2.0.dev47 (UTC 2006-11-01)

Audio
ID : 1
Format : AC-3
Format/Info : Audio Coding 3
Mode extension : CM (complete main)
Codec ID : 2000
Duration : 1h 39mn
Bit rate mode : Constant
Bit rate : 384 Kbps
Channel(s) : 6 channels
Channel positions : Front: L C R, Side: L R, LFE
Sampling rate : 48.0 KHz
Bit depth : 16 bits
Compression mode : Lossy
Stream size : 273 MiB (18%)
Alignment : Split accross interleaves
Interleave, duration : 42 ms (1.00 video frame)
Interleave, preload duration : 500 ms













_________________



реклама партнёра


Вернуться к началу
 Профиль Отправить личное сообщение  
 
   Похожие торренты   Автор   Торрент   Размер 
В этой теме нет новых непрочитанных сообщений. Один в темноте / Alone in the Dark [Ужасы, триллер, фантастика, 2005] BDRip 720p, Dub+Mvo+Dvo+Avo

salma3

17 | 2

6.5 ГБ

В этой теме нет новых непрочитанных сообщений. Один дома 5: Один в темноте / Home Alone: The Holiday Heist [комедия, криминал, семейный, 2012] WEB-DL 720p, Mvo

salma3

201 | 17

3.04 ГБ

В этой теме нет новых непрочитанных сообщений. Один дома 5: Один в темноте / Home Alone: The Holiday Heist [комедия, криминал, семейный, 2012] WEB-DLRip, Mvo [BaiBako]

salma3

1714 | 117

1.46 ГБ

В этой теме нет новых непрочитанных сообщений. Тёмная вода / Dark Water [ужасы, триллер, драма, 2005] HDRip, Dub

salma3

136 | 11

1.45 ГБ

В этой теме нет новых непрочитанных сообщений. Крестовые походы / Dark Relic [ужасы, фантастика, фэнтези, 2010] HDRip, Mvo

salma3

4 | 2

1.37 ГБ

В этой теме нет новых непрочитанных сообщений. Тор 2: Царство тьмы / Thor: The Dark World [фэнтези, боевик, приключения, 2013] HDRip, dub+sub [iTunes]

Dracon

614 | 9

2.05 ГБ

В этой теме нет новых непрочитанных сообщений. Тор 2: Царство тьмы / Thor: The Dark World [фэнтези, боевик, приключения, 2013] HDRip-AVC, Dub+Sub [Лицензия]

Dracon

227 | 3

1.45 ГБ


Начать новую тему Ответить на тему  [ 1 сообщение ] 




Для Мосгорсуда, Роскомнадзора и рекламодателей:: mosgorsud-torrent[собачка]yandex.ru