Торрент файл
скачать торрент магнет ссылка Добавлен: 07 дек 2013, 20:10
Размер: 2.93 ГБ
Сидеров: 0
Личеров: 2
Автор

СообщениеДобавлено: 07 дек 2013, 20:10 

Не в сети
Зам. Админа
Аватара пользователя
Дата регистрации:
02 дек 2010, 12:39
Спасибо: 12460 / 214
Сообщения: 27968
Год выпуска: 2013
Жанр: Комедия, криминал
Выпущено: США, Франция , EuropaCorp, Malavita, Relativity Media
Режиссер: Люк Бессон
В ролях: Роберт Де Ниро, Мишель Пфайффер, Томми Ли Джонс, Дианна Агрон, Джон Фреда, Рикардо Сорберо, Доминик Кьянезе, Дэвид Белль, Джон Д’Лео, Джино Кафарелли

О фильме: На тихой улочке провинциального французского городка поселился писатель по фамилии Блейк, со своим семейством и собакой Малавитой. На этом многовековое спокойствие города закончилось. Почему сгорел местный супермаркет? Чем рискует медлительный водопроводчик? Что лежит в рюкзаке у милого парня в бежевых бриджах? Никто и представить себе не мог, что на самом деле мистер Блейк — бывший глава мафии, которого власти прячут здесь от преследования. И вот в городок приезжают люди «Коза Ностры»…

Исходник: Blu-ray
Качество: BDRip 720p
Формат: AVI
Видео: Xvid 1280x720 25fps 3469kbps
Аудио: Dolby AC3 48000Hz 6ch 448kbps
Семпл
General
Complete name : D:\Фильмы !\Малавита BDRip-AVI 720p.avi
Format : AVI
Format/Info : Audio Video Interleave
Format profile : OpenDML
File size : 2.93 GiB
Duration : 1h 46mn
Overall bit rate : 3 927 Kbps
Writing application : XviD4PSP 6.0 / 53.6.0

Video
ID : 0
Format : MPEG-4 Visual
Format profile : Advanced Simple@L5
Format settings, BVOP : Yes
Format settings, QPel : No
Format settings, GMC : 3 warppoints
Format settings, Matrix : Default (H.263)
Codec ID : XVID
Codec ID/Hint : XviD
Duration : 1h 46mn
Bit rate : 3 469 Kbps
Width : 1 280 pixels
Height : 720 pixels
Display aspect ratio : 16:9
Frame rate : 25.000 fps
Color space : YUV
Chroma subsampling : 4:2:0
Bit depth : 8 bits
Scan type : Interlaced
Scan order : Top Field First
Compression mode : Lossy
Bits/(Pixel*Frame) : 0.151
Stream size : 2.59 GiB (88%)
Writing library : XviD 64

Audio
ID : 1
Format : AC-3
Format/Info : Audio Coding 3
Mode extension : CM (complete main)
Format settings, Endianness : Big
Codec ID : 2000
Duration : 1h 46mn
Bit rate mode : Constant
Bit rate : 448 Kbps
Channel(s) : 6 channels
Channel positions : Front: L C R, Side: L R, LFE
Sampling rate : 48.0 KHz
Bit depth : 16 bits
Compression mode : Lossy
Stream size : 343 MiB (11%)
Alignment : Aligned on interleaves
Interleave, duration : 32 ms (0.80 video frame)







реклама партнёра


Вернуться к началу
 Профиль  
 
   Похожие торренты   Автор   Торрент   Размер 
В этой теме нет новых непрочитанных сообщений. РЭД 2 / Red 2 [Боевик, комедия, криминал, 2013] BDRip 720p, Dub+Sub [Лицензия]

Dracon

82 | 6

6.72 ГБ

В этой теме нет новых непрочитанных сообщений. Семейный уик-энд / Family Weekend [драма, комедия, 2013] WEB-DL 720p, Dub [Лицензия]

Dracon

112 | 9

3.71 ГБ

В этой теме нет новых непрочитанных сообщений. Джо / Joe [боевик, триллер, драма, криминал, 2013] BDRip 720p, Mvo+Sub [лицензия]

Dracon

674 | 31

5.83 ГБ

В этой теме нет новых непрочитанных сообщений. Замороженные солдаты / Ice Soldiers [Боевик, криминал, 2013] BDRip 720p, Mvo+Sub [Лицензия]

salma3

66 | 8

6.37 ГБ

В этой теме нет новых непрочитанных сообщений. Кровавая месть / In the Blood [триллер, боевик, криминал, 2013] BDRip 720p, Dub [Лицензия]

Dracon

381 | 21

4.64 ГБ

В этой теме нет новых непрочитанных сообщений. Кровавая месть / In the Blood [триллер, боевик, криминал, 2013] BDRip 720p, Dub+Sub [Лицензия]

Dracon

35 | 5

19.61 ГБ

В этой теме нет новых непрочитанных сообщений. РЭД 2 / Red 2 [Боевик, комедия, криминал, 2013] BDRip, Dub+Sub [Лицензия]

Dracon

557 | 25

2.19 ГБ


Начать новую тему Ответить на тему  [ 1 сообщение ] 




Для Мосгорсуда, Роскомнадзора и рекламодателей:: mosgorsud-torrent[собачка]yandex.ru