Торрент файл
скачать торрент магнет ссылка Добавлен: 07 дек 2013, 10:57
Размер: 4.07 ГБ
Сидеров: 17
Личеров: 2
Статус: (Dracon)
Автор

СообщениеДобавлено: 07 дек 2013, 10:57 

Не в сети
Зам. Админа
Аватара пользователя
Дата регистрации:
02 дек 2010, 12:39
Спасибо: 12461 / 214
Сообщения: 27968
Год выхода: 2013
Жанр: триллер, приключения
Режиссер: Давид Пастор, Алекс Пастор
В ролях: Ким Гутьеррес, Хосе Коронадо, Марта Этура, Летисия Долера, Микель Иглесиас, Иван Массаге, Пере Вентура, Луис Солер, Hwida Фара Хамед

О фильме: 2013 год. Таинственная эпидемия мгновенно распространилась по планете: теперь миром правит агорафобия — боязнь открытого пространства. Оставшиеся в живых люди прячутся под землей или внутри зданий.

Главный герой офисный клерк Марк. Внезапная эпидемия застала его на работе. Дома у Марка осталась беременная жена, которая должна вот вот родить. Ему нужно вернуться к ней, но как это сделать, если он не может выйти на улицу?Он начинает свой путь по подземным коммуникациям, перебираясь из подвала, в другой подвал, из одного тоннеля метро в другой тоннель. Ему остается совсем немного, он уже видит свою жену из окна соседнего дома, но перейти в него, можно только по улице. Решится ли он на этот шаг?


Выпущено: Испания / A3 Media Cine
Продолжительность: 01:42:42
Озвучивание: Профессиональное (многоголосое)

Формат: MKV
Качество: BDRip 720p
Видео: 3844 kb/s, 1280x538
Аудио: Russian: AC3, 192 kb/s (2 ch) / Spanish: DTS, 1510 Kbps (6 ch)
Субтитры: English, French

Format : Matroska
Format version : Version 4 / Version 2
File size : 4.07 GiB
Duration : 1h 42mn
Overall bit rate : 5 667 Kbps
Encoded date : UTC 2013-12-06 17:12:04
Writing application : mkvmerge v6.1.0 ('Old Devil') built on Mar 4 2013 09:10:42
Writing library : libebml v1.3.0 + libmatroska v1.4.0

Video
ID : 1
Format : AVC
Format/Info : Advanced Video Codec
Format profile : High@L4.1
Format settings, CABAC : Yes
Format settings, ReFrames : 12 frames
Codec ID : V_MPEG4/ISO/AVC
Duration : 1h 42mn
Bit rate : 3 853 Kbps
Width : 1 280 pixels
Height : 538 pixels
Display aspect ratio : 2.40:1
Frame rate : 24.000 fps
Color space : YUV
Chroma subsampling : 4:2:0
Bit depth : 8 bits
Scan type : Progressive
Bits/(Pixel*Frame) : 0.233
Stream size : 2.76 GiB (68%)
Writing library : x264 core 133 r2334+704+50 a7549b7 tMod [8-bit@4:2:0 X86_64]
Encoding settings : cabac=1 / ref=12 / deblock=1:-3:-3 / analyse=0x3:0x113 / me=umh / subme=10 / psy=1 / fade_compensate=0.00 / psy_rd=1.01:0.00 / mixed_ref=1 / me_range=32 / chroma_me=1 / trellis=2 / 8x8dct=1 / cqm=0 / deadzone=21,11 / fast_pskip=1 / chroma_qp_offset=-2 / threads=16 / lookahead_threads=2 / sliced_threads=0 / nr=0 / decimate=1 / interlaced=0 / bluray_compat=0 / constrained_intra=0 / fgo=0 / bframes=8 / b_pyramid=2 / b_adapt=2 / b_bias=0 / direct=3 / weightb=1 / open_gop=0 / weightp=2 / keyint=240 / keyint_min=24 / scenecut=40 / intra_refresh=0 / rc_lookahead=50 / rc=crf / mbtree=0 / crf=17.0000 / qcomp=0.70 / qpmin=0 / qpmax=69 / qpstep=4 / vbv_maxrate=50000 / vbv_bufsize=50000 / crf_max=0.0 / nal_hrd=none / ip_ratio=1.40 / pb_ratio=1.30 / aq=4:0.80 / aq-sensitivity=10.00 / aq-factor=1.00:1.00:1.00 / aq2=0 / aq3=0
Language : English
Default : Yes
Forced : No

Audio #1
ID : 2
Format : AC-3
Format/Info : Audio Coding 3
Mode extension : CM (complete main)
Format settings, Endianness : Big
Codec ID : A_AC3
Duration : 1h 42mn
Bit rate mode : Constant
Bit rate : 192 Kbps
Channel(s) : 2 channels
Channel positions : Front: L R
Sampling rate : 48.0 KHz
Bit depth : 16 bits
Compression mode : Lossy
Stream size : 141 MiB (3%)
Language : Russian
Default : Yes
Forced : No

Audio #2
ID : 3
Format : DTS
Format/Info : Digital Theater Systems
Codec ID : A_DTS
Duration : 1h 42mn
Bit rate mode : Constant
Bit rate : 1 510 Kbps
Channel(s) : 6 channels
Channel positions : Front: L C R, Side: L R, LFE
Sampling rate : 48.0 KHz
Bit depth : 24 bits
Compression mode : Lossy
Delay relative to video : 11ms
Stream size : 1.08 GiB (27%)
Language : Spanish
Default : No
Forced : No

Text #1
ID : 4
Format : VobSub
Muxing mode : zlib
Codec ID : S_VOBSUB
Codec ID/Info : The same subtitle format used on DVDs
Language : English
Default : No
Forced : No

Text #2
ID : 5
Format : VobSub
Muxing mode : zlib
Codec ID : S_VOBSUB
Codec ID/Info : The same subtitle format used on DVDs
Language : French
Default : No
Forced : No

Menu
00:00:00.000 : en:00:00:00.000
00:11:55.542 : en:00:11:55.542
00:24:51.500 : en:00:24:51.500
00:36:01.667 : en:00:36:01.667
00:47:24.875 : en:00:47:24.875
01:01:10.167 : en:01:01:10.167
01:12:39.792 : en:01:12:39.792




реклама партнёра


Вернуться к началу
 Профиль  
 
   Похожие торренты   Автор   Торрент   Размер 
В этой теме нет новых непрочитанных сообщений. Эпидемия / Los ultimos dias [Триллер, приключения, 2013] BDRip 720p, Mvo+Sub [Лицензия]

salma3

24 | 3

4.25 ГБ

В этой теме нет новых непрочитанных сообщений. Эпидемия / Outbreak [триллер, драма, фантастика, боевик, 1995] BDRip 1080p, 2Dub+Sub

salma3

149 | 20

7.75 ГБ

В этой теме нет новых непрочитанных сообщений. Голодные игры: И вспыхнет пламя / The Hunger Games: Catching Fire [фантастика, боевик, триллер, приключения, 2013] BDRip 720p, Dub+Sub [Лицензия]

Dracon

323 | 12

6.44 ГБ

В этой теме нет новых непрочитанных сообщений. Голодные игры: И вспыхнет пламя / The Hunger Games: Catching Fire [IMAX] [фантастика, боевик, триллер, приключения, 2013] BDRip 720p, Dub [Чистый звук]

Dracon

210 | 6

5.9 ГБ

В этой теме нет новых непрочитанных сообщений. Белка и Стрелка: Лунные приключения [мультфильм, комедия, приключения, семейный, 2013] BDRip 720p | [Лицензия]

Dracon

430 | 13

2.91 ГБ

В этой теме нет новых непрочитанных сообщений. Hocico - Los Dias Caminando En El Fuego: 20 Years Keeping The Blood Boiling (Compilation) [2013, EBM, Industrial, Dark Electro, MP3]

PriZraK

0 | 1

170.89 МБ

В этой теме нет новых непрочитанных сообщений. Три мушкетера [Приключения, 2013] BDRip 720p [Лицензия]

Dracon

282 | 42

4.37 ГБ


Начать новую тему Ответить на тему  [ 1 сообщение ] 




Для Мосгорсуда, Роскомнадзора и рекламодателей:: mosgorsud-torrent[собачка]yandex.ru