Торрент файл
скачать торрент магнет ссылка Добавлен: 07 дек 2013, 01:07
Размер: 2.75 ГБ
Сидеров: 717
Личеров: 73
Статус: (salma3)
Автор

СообщениеДобавлено: 07 дек 2013, 01:07 

Не в сети
Супермодератор
Аватара пользователя
Дата регистрации:
15 фев 2012, 16:44
Возраст: 27
Спасибо: 5139 / 2089
Сообщения: 17411
Близкие враги / Enemies Closer

Год выпуска: 2013
Жанр: Триллер
Режиссер: Питер Хайамс

В ролях: Жан-Клод Ван Дамм, Орландо Джонс, Том Эверетт Скотт, Линзи Коккер, Кристофер Ван Варенберг, Захари Бахаров, Атанас Сребрев, Мэтт Медрано, Йонас Токингтон, Христо Митцков

О фильме: Двум заклятым врагам, столкнувшимся в лесу на американо-канадской границе, приходится объединиться в борьбе против наркокурьеров, желающих любой ценой вернуть свой потерянный груз.



Выпущено: Канада, США, AfterDark Films, IM Global
Продолжительность: 01:21:40
Озвучивание: Любительское (одноголосое) [Хихикающий доктор]

Файл
Формат: MKV
Качество: BDRip 720p
Видео: 4000 kb/s, 1280x720
Аудио: Russian: MP3, 192 kb/s (2 ch) / English: AC3 640 kb/s (6 ch)

Format : Matroska
Format version : Version 2
File size : 2.75 GiB
Duration : 1h 21mn
Overall bit rate : 4 827 Kbps
Encoded date : UTC 2013-12-06 16:38:45
Writing application : mkvmerge v5.8.0 ('No Sleep / Pillow') built on Sep 2 2012 15:37:04
Writing library : libebml v1.2.3 + libmatroska v1.3.0

Video
ID : 1
Format : AVC
Format/Info : Advanced Video Codec
Format profile : High@L4.1
Format settings, CABAC : Yes
Format settings, ReFrames : 9 frames
Codec ID : V_MPEG4/ISO/AVC
Duration : 1h 21mn
Bit rate : 4 000 Kbps
Width : 1 280 pixels
Height : 720 pixels
Display aspect ratio : 16:9
Frame rate : 25.000 fps
Color space : YUV
Chroma subsampling : 4:2:0
Bit depth : 8 bits
Scan type : Progressive
Bits/(Pixel*Frame) : 0.174
Stream size : 2.22 GiB (81%)
Writing library : x264 core 136 r2348+704+51 d1baef6 tMod [8-bit@all X86]
Encoding settings : cabac=1 / ref=9 / deblock=1:-2:-2 / analyse=0x3:0x133 / me=umh / subme=11 / psy=1 / fade_compensate=0.00 / psy_rd=1.05:0.05 / mixed_ref=1 / me_range=32 / chroma_me=1 / trellis=2 / 8x8dct=1 / cqm=0 / deadzone=21,11 / fast_pskip=0 / chroma_qp_offset=-3 / threads=12 / lookahead_threads=2 / sliced_threads=0 / nr=0 / decimate=0 / interlaced=0 / bluray_compat=0 / constrained_intra=0 / fgo=0 / bframes=8 / b_pyramid=2 / b_adapt=2 / b_bias=0 / direct=3 / weightb=1 / open_gop=0 / weightp=2 / keyint=250 / keyint_min=25 / scenecut=40 / intra_refresh=0 / rc=2pass / mbtree=0 / bitrate=4000 / ratetol=1.0 / qcomp=0.70 / qpmin=0:0:0 / qpmax=69:69:69 / qpstep=4 / cplxblur=20.0 / qblur=0.5 / ip_ratio=1.40 / pb_ratio=1.30 / aq=3:0.85 / aq-sensitivity=10.00 / aq-factor=1.00:1.00:1.00 / aq2=0 / aq3=0
Language : English
Default : Yes
Forced : No

Audio #1
ID : 2
Format : MPEG Audio
Format version : Version 1
Format profile : Layer 3
Mode : Joint stereo
Mode extension : MS Stereo
Codec ID : A_MPEG/L3
Codec ID/Hint : MP3
Duration : 1h 21mn
Bit rate mode : Constant
Bit rate : 192 Kbps
Channel(s) : 2 channels
Sampling rate : 48.0 KHz
Compression mode : Lossy
Stream size : 112 MiB (4%)
Language : Russian
Default : Yes
Forced : No

Audio #2
ID : 3
Format : AC-3
Format/Info : Audio Coding 3
Mode extension : CM (complete main)
Format settings, Endianness : Big
Codec ID : A_AC3
Duration : 1h 21mn
Bit rate mode : Constant
Bit rate : 640 Kbps
Channel(s) : 6 channels
Channel positions : Front: L C R, Side: L R, LFE
Sampling rate : 48.0 KHz
Bit depth : 16 bits
Compression mode : Lossy
Stream size : 374 MiB (13%)
Language : English
Default : No
Forced : No

Menu
00:00:00.000 : en:00:00:00.000
00:05:18.040 : en:00:05:18.040
00:11:30.640 : en:00:11:30.640
00:17:17.400 : en:00:17:17.400
00:25:16.600 : en:00:25:16.600
00:32:33.440 : en:00:32:33.440
00:39:45.480 : en:00:39:45.480
00:48:06.400 : en:00:48:06.400
00:56:29.400 : en:00:56:29.400
01:03:02.800 : en:01:03:02.800
01:10:09.800 : en:01:10:09.800
01:16:13.240 : en:01:16:13.240



_________________



реклама партнёра


Вернуться к началу
 Профиль Отправить личное сообщение  
 
   Похожие торренты   Автор   Торрент   Размер 
В этой теме нет новых непрочитанных сообщений. Близкие враги / Enemies Closer [Триллер, 2013] BDRip 720p, Dvo+Avo+Sub

Dracon

12 | 2

5.12 ГБ

В этой теме нет новых непрочитанных сообщений. Близкие враги / Enemies Closer [Триллер, 2013] HDRip, Mvo

Dracon

967 | 8

1.45 ГБ

В этой теме нет новых непрочитанных сообщений. Близкие враги / Enemies Closer [Триллер, 2013] BDRemux 1080p, Dvo+Avo+Sub

salma3

26 | 7

16.5 ГБ

В этой теме нет новых непрочитанных сообщений. Mia Malkova / Mia Gets Closer (2015) HD 720p

Dile-1

33 | 24

1.07 ГБ

В этой теме нет новых непрочитанных сообщений. Infamous Sinphony - Enemies of the State [2013, Thrash Metal, Crossover, MP3]

PriZraK

0 | 1

103.58 МБ

В этой теме нет новых непрочитанных сообщений. В страхе / In Fear [триллер, 2013] BDRip 720p, Avo

salma3

33 | 8

3.39 ГБ

В этой теме нет новых непрочитанных сообщений. Стервятник / Sep [Боевик, Триллер, 2013] BDRip 720p, avo

Ανδρέας

13 | 13

5.8 ГБ


Начать новую тему Ответить на тему  [ 1 сообщение ] 




Для Мосгорсуда, Роскомнадзора и рекламодателей:: mosgorsud-torrent[собачка]yandex.ru