Торрент файл
скачать торрент магнет ссылка Добавлен: 06 дек 2013, 14:15
Размер: 2.18 ГБ
Сидеров: 100
Личеров: 8
Статус: (salma3)
Автор

СообщениеДобавлено: 06 дек 2013, 14:15 

В сети
Супермодератор
Аватара пользователя
Дата регистрации:
15 фев 2012, 16:44
Возраст: 27
Спасибо: 5142 / 2090
Сообщения: 17471
Райский проект / The Lazarus Project

Год выпуска: 2008
Жанр: триллер, драма, детектив
Режиссер: Джон Гленн

В ролях: Пол Уокер, Пайпер Перабо, Бруклин Пру, Боб Гантон, Ламбер Вильсон, Линда Карделлини, Тони Карран, Малкольм Гудвин, Росс МакМиллан, Аарон Хьюз

Описание: Фильм о человеке, который потерял всё что любил и чтобы вернуть назад свою семью и вернуться к нормальной жизни ему придётся встретиться лицом к лицу с мистическими явлениями, пройти бесчисленное количество испытаний собственной веры, тронуться рассудком и изучить самые тёмные уголки своей души. …



Страна: США
Продолжительность: 01:39:47
Перевод: Профессиональный (многоголосый, закадровый)

Файл
Качество: HDRip-AVC
Формат файла: MKV
Видео кодек: H.264
Аудио кодек: AC3
Видео: 1280 x 544 (2.35:1), 23.976 fps, AVC (х264) High@L4.1, ~ 2684 Kbps, 0.161 bit/pixel
Аудио: 48 kHz, AC3 Dolby Digital, 3/2 (L,C,R,l,r) + LFE ch, ~448 kbps avg


Рип: jeenart


General
Unique ID : 175599939627446607064413123484734835894 (0x841B51754CD9F676B111F06D085DCCB6)
Complete name : F:\Rayskiy.proekt.HDRip-AVC.H.264.2,18 Gb.RG.Films.mkv
Format : Matroska
Format version : Version 2
File size : 2.18 GiB
Duration : 1h 39mn
Overall bit rate : 3 132 Kbps
Encoded date : UTC 2013-12-05 11:02:12
Writing application : mkvmerge v5.8.0 ('No Sleep / Pillow') built on Sep 2 2012 15:37:04
Writing library : libebml v1.2.3 + libmatroska v1.3.0

Video
ID : 1
Format : AVC
Format/Info : Advanced Video Codec
Format profile : High@L4.1
Format settings, CABAC : Yes
Format settings, ReFrames : 8 frames
Codec ID : V_MPEG4/ISO/AVC
Duration : 1h 39mn
Bit rate : 2 684 Kbps
Width : 1 280 pixels
Height : 544 pixels
Display aspect ratio : 2.35:1
Frame rate mode : Constant
Frame rate : 23.976 fps
Color space : YUV
Chroma subsampling : 4:2:0
Bit depth : 8 bits
Scan type : Progressive
Bits/(Pixel*Frame) : 0.161
Stream size : 1.83 GiB (84%)
Writing library : x264 core 125 r2208 d9d2288
Encoding settings : cabac=1 / ref=8 / deblock=1:-1:-1 / analyse=0x3:0x133 / me=umh / subme=11 / psy=1 / psy_rd=1.00:0.10 / mixed_ref=1 / me_range=24 / chroma_me=1 / trellis=2 / 8x8dct=1 / cqm=0 / deadzone=21,11 / fast_pskip=0 / chroma_qp_offset=-3 / threads=12 / lookahead_threads=2 / sliced_threads=0 / nr=0 / decimate=1 / interlaced=0 / bluray_compat=0 / constrained_intra=0 / bframes=3 / b_pyramid=2 / b_adapt=2 / b_bias=0 / direct=3 / weightb=1 / open_gop=0 / weightp=2 / keyint=250 / keyint_min=23 / scenecut=40 / intra_refresh=0 / rc_lookahead=50 / rc=2pass / mbtree=1 / bitrate=2684 / ratetol=1.0 / qcomp=0.60 / qpmin=0 / qpmax=69 / qpstep=4 / cplxblur=20.0 / qblur=0.5 / ip_ratio=1.40 / aq=1:1.00
Default : Yes
Forced : No

Audio
ID : 2
Format : AC-3
Format/Info : Audio Coding 3
Mode extension : CM (complete main)
Format settings, Endianness : Big
Codec ID : A_AC3
Duration : 1h 39mn
Bit rate mode : Constant
Bit rate : 448 Kbps
Channel(s) : 6 channels
Channel positions : Front: L C R, Side: L R, LFE
Sampling rate : 48.0 KHz
Bit depth : 16 bits
Compression mode : Lossy
Stream size : 320 MiB (14%)
Default : Yes
Forced : No














_________________



реклама партнёра


Вернуться к началу
 Профиль Отправить личное сообщение  
 
   Похожие торренты   Автор   Торрент   Размер 
В этой теме нет новых непрочитанных сообщений. Райский проект / The Lazarus Project [Драма, Триллер, 2008] HDRip, Mvo

salma3

1 | 3

1.46 ГБ

В этой теме нет новых непрочитанных сообщений. Междоусобный проект / Смертельный проект / The Internecine Project [Триллер, 1974] DVDRip, Avo

salma3

23 | 3

1.46 ГБ

В этой теме нет новых непрочитанных сообщений. Проект зло / P.O.E. Project of Evil [ужасы, 2012] HDRip, Avo

salma3

267 | 17

1.37 ГБ

В этой теме нет новых непрочитанных сообщений. Манхэттенский проект / The Manhattan Project [фантастика, триллер, 1986] BDRip 720p, Mvo

salma3

6 | 3

7.94 ГБ

В этой теме нет новых непрочитанных сообщений. Проект 12: Бункер / Project 12: The Bunker (Джейми Фалеро / Jaime Falero) [2016г., Испания, фантастика, боевик, триллер, приключения, WEB-DLRip] VO

Alfredovich

42 | 8

760.22 МБ

В этой теме нет новых непрочитанных сообщений. Project RV / Проект РВ (2016) WEB-DL

amadei

11 | 12

1.73 ГБ

В этой теме нет новых непрочитанных сообщений. Райский коттедж / Eden Lodge [ужасы, триллер, детектив, 2015] DVDRip, Dvo

salma3

2174 | 113

1.39 ГБ


СообщениеДобавлено: 06 дек 2013, 14:19 

В сети
Супермодератор
Аватара пользователя
Дата регистрации:
15 фев 2012, 16:44
Возраст: 27
Спасибо: 5142 / 2090
Сообщения: 17471
Всем приятного просмотра!!!

_________________


Вернуться к началу
 Профиль Отправить личное сообщение  
 
Начать новую тему Ответить на тему  [ Сообщений: 2 ] 




Для Мосгорсуда, Роскомнадзора и рекламодателей:: mosgorsud-torrent[собачка]yandex.ru