Торрент файл
скачать торрент магнет ссылка Добавлен: 04 дек 2013, 21:04
Размер: 1.44 ГБ
Сидеров: 72
Личеров: 4
Статус: (Dracon)
Автор

СообщениеДобавлено: 04 дек 2013, 21:04 

Не в сети
Супермодератор
Аватара пользователя
Дата регистрации:
15 фев 2012, 16:44
Возраст: 27
Спасибо: 6062 / 2116
Сообщения: 29577
Два нуля / Double zero

Год выхода: 2004
Жанр: Комедия, боевик
Режиссер: Жерар Пирес

В ролях: Эрик Жюдор, Рамзи Бедиа, Эдуар Баэр, Джорджанна Робертсон, Франсуа Шатто, Дидье Фламан, Росси де Пальма, Нино Киртадзе

О фильме:
Бен и Вилл — самые бездарные агенты, полные нули, круглые идиоты. Кому же еще поручить суперсложное, сверхсекретное задание? Глава преступного синдиката украл ядерную бомбу. Обезвредить злодея сможет далеко не каждый дурак, а только наши безбашенные друзья.

Их ждет незабываемый вояж из Парижа на сказочную Ямайку, прямо в логово врага. Тупиц ничто не остановит. Им все нипочем — ни танки, ни армия ниндзя, ни команда обнаженных топ-моделей. У чудаков своя логика. Они спасут мир. Джеймс Бонд отдыхает!



Страна: Франция
Студия: Warner Bros France
Продолжительность: 01:26:42
Перевод: Дубляж (Лицензия)

Файл
Качество: DVDRip-AVC
Формат файла: AVC
Видео кодек: h264
Аудио кодек: AC3
Видео: Bit rate: 2 008 Kbps, Width: 720 pixels, Height: 304 pixels
Звук: Русский AC3, 384 Kbps, 6 channels

Video
ID : 1
Format : AVC
Format/Info : Advanced Video Codec
Format profile : High@L4.1
Format settings, CABAC : Yes
Format settings, ReFrames : 5 frames
Codec ID : V_MPEG4/ISO/AVC
Duration : 1h 26mn
Bit rate : 2 008 Kbps
Width : 720 pixels
Height : 304 pixels
Display aspect ratio : 2.35:1
Frame rate mode : Constant
Frame rate : 23.976 fps
Color space : YUV
Chroma subsampling : 4:2:0
Bit depth : 8 bits
Scan type : Progressive
Bits/(Pixel*Frame) : 0.383
Stream size : 1.18 GiB (82%)

Audio
ID : 2
Format : AC-3
Format/Info : Audio Coding 3
Mode extension : CM (complete main)
Format settings, Endianness : Big
Codec ID : A_AC3
Duration : 1h 26mn
Bit rate mode : Constant
Bit rate : 384 Kbps
Channel(s) : 6 channels
Channel positions : Front: L C R, Side: L R, LFE
Sampling rate : 48.0 KHz
Bit depth : 16 bits
Compression mode : Lossy
Stream size : 238 MiB (16%)
Default : Yes
Forced : No


Релиз от: ..::ArchangeL::..


_________________
Проголосуй за трекер Открытый торрент трекер - RUS-MEDIA.ORG

Проголосуй Открытый торрент трекер - RUS-MEDIA.ORG



реклама партнёра


Вернуться к началу
 Профиль Отправить личное сообщение  
 
   Похожие торренты   Автор   Торрент   Размер 
В этой теме нет новых непрочитанных сообщений. [JulesJordan.com] Angel Smalls (It Takes A Double Anal, A Double Vag A DP To Satisfy This Slut) [2017-04-14 г., 3 Way, Anal, Ass To Mouth, Big Cocks, Blondes, Blowjobs, Deep Throat, Double Anal, Double Penetration, Facial, Gonzo, All Sex, 4

salma3

14 | 6

5.95 ГБ

В этой теме нет новых непрочитанных сообщений. [JulesJordan.com] Angel Smalls (It Takes A Double Anal, A Double Vag & A DP To Satisfy This Slut / 14.04.17) [2017 г., Anal, Ass To Mouth, Big Cocks, Blondes, Blowjobs, Deep Throat, Double Anal, Double Penetration, Facial, Natural, Gonzo]

salma3

38 | 13

276.48 МБ

В этой теме нет новых непрочитанных сообщений. [JulesJordan.com] Angel Smalls (It Takes A Double Anal, A Double Vag & A DP To Satisfy This Slut / 14.04.17) [2017 г., Anal, Ass To Mouth, Big Cocks, Blondes, Blowjobs, Deep Throat, Double Anal, Double Penetration, Facial, Natural, Gonzo, 7

salma3

33 | 11

1005.34 МБ

В этой теме нет новых непрочитанных сообщений. Cum In My Ass Not In My Mouth 3 / Кончи Мне В Жопу, А Не В Рот 3 (Erik Everhard / Jules Jordan Video) [2004 г., Straight, Anal, Cream Pie, Cumshots, Double Penetration, DVDRip]

salma3

29 | 9

1.36 ГБ

В этой теме нет новых непрочитанных сообщений. [LegalPorno.com] Kristy Black - my first double anal (5on1 DAP, DPP, TP and DP) SZ1714 [2017 г., Anal, Ass Gape, Ass To Mouth, Cum On Face, Cum Shots, Deep Blowjob, Dildo, Double Anal, DP, Group Sex, Hardcore, 5 on 1, Double Pussy, Rough Se

salma3

49 | 10

1.55 ГБ

В этой теме нет новых непрочитанных сообщений. Двойной дракон / Double Dragon [фантастика, боевик, комедия, 1994] BDRip, Mvo+Avo

salma3

31 | 4

1.46 ГБ

В этой теме нет новых непрочитанных сообщений. Колония / Double Team [Фантастика, боевик, триллер, комедия, 1997] Blu-Ray Remux 1080p, Dub+Mvo+Sub

salma3

39 | 6

15.37 ГБ


Начать новую тему Ответить на тему  [ 1 сообщение ] 




Для Мосгорсуда, Роскомнадзора и рекламодателей:: mosgorsud-torrent[собачка]yandex.ru