Торрент файл
скачать торрент магнет ссылка Добавлен: 04 дек 2013, 21:04
Размер: 1.44 ГБ
Сидеров: 72
Личеров: 4
Статус: (Dracon)
Автор

СообщениеДобавлено: 04 дек 2013, 21:04 

Не в сети
Супермодератор
Аватара пользователя
Дата регистрации:
15 фев 2012, 16:44
Возраст: 27
Спасибо: 5143 / 2090
Сообщения: 17495
Два нуля / Double zero

Год выхода: 2004
Жанр: Комедия, боевик
Режиссер: Жерар Пирес

В ролях: Эрик Жюдор, Рамзи Бедиа, Эдуар Баэр, Джорджанна Робертсон, Франсуа Шатто, Дидье Фламан, Росси де Пальма, Нино Киртадзе

О фильме:
Бен и Вилл — самые бездарные агенты, полные нули, круглые идиоты. Кому же еще поручить суперсложное, сверхсекретное задание? Глава преступного синдиката украл ядерную бомбу. Обезвредить злодея сможет далеко не каждый дурак, а только наши безбашенные друзья.

Их ждет незабываемый вояж из Парижа на сказочную Ямайку, прямо в логово врага. Тупиц ничто не остановит. Им все нипочем — ни танки, ни армия ниндзя, ни команда обнаженных топ-моделей. У чудаков своя логика. Они спасут мир. Джеймс Бонд отдыхает!



Страна: Франция
Студия: Warner Bros France
Продолжительность: 01:26:42
Перевод: Дубляж (Лицензия)

Файл
Качество: DVDRip-AVC
Формат файла: AVC
Видео кодек: h264
Аудио кодек: AC3
Видео: Bit rate: 2 008 Kbps, Width: 720 pixels, Height: 304 pixels
Звук: Русский AC3, 384 Kbps, 6 channels

Video
ID : 1
Format : AVC
Format/Info : Advanced Video Codec
Format profile : High@L4.1
Format settings, CABAC : Yes
Format settings, ReFrames : 5 frames
Codec ID : V_MPEG4/ISO/AVC
Duration : 1h 26mn
Bit rate : 2 008 Kbps
Width : 720 pixels
Height : 304 pixels
Display aspect ratio : 2.35:1
Frame rate mode : Constant
Frame rate : 23.976 fps
Color space : YUV
Chroma subsampling : 4:2:0
Bit depth : 8 bits
Scan type : Progressive
Bits/(Pixel*Frame) : 0.383
Stream size : 1.18 GiB (82%)

Audio
ID : 2
Format : AC-3
Format/Info : Audio Coding 3
Mode extension : CM (complete main)
Format settings, Endianness : Big
Codec ID : A_AC3
Duration : 1h 26mn
Bit rate mode : Constant
Bit rate : 384 Kbps
Channel(s) : 6 channels
Channel positions : Front: L C R, Side: L R, LFE
Sampling rate : 48.0 KHz
Bit depth : 16 bits
Compression mode : Lossy
Stream size : 238 MiB (16%)
Default : Yes
Forced : No


Релиз от: ..::ArchangeL::..


_________________



реклама партнёра


Вернуться к началу
 Профиль Отправить личное сообщение  
 
   Похожие торренты   Автор   Торрент   Размер 
В этой теме нет новых непрочитанных сообщений. Колония / Double Team [боевик, триллер, комедия, 1997] HDTVRip, Dub+Mvo+Sub

salma3

15 | 3

1.46 ГБ

В этой теме нет новых непрочитанных сообщений. Двойной дракон / Double Dragon [фантастика, боевик, комедия, 1994] BDRip, Mvo+Avo

salma3

30 | 3

1.46 ГБ

В этой теме нет новых непрочитанных сообщений. Двойной дракон / Double Dragon [Фантастика, боевик, комедия, 1994] BDRip 1080p, Mvo+Avo+Sub

salma3

9 | 2

7.02 ГБ

В этой теме нет новых непрочитанных сообщений. Колония / Double Team [Фантастика, боевик, триллер, комедия, 1997] Blu-Ray Remux 1080p, Dub+Mvo+Sub

salma3

39 | 6

15.37 ГБ

В этой теме нет новых непрочитанных сообщений. Двойной дракон / Double Dragon [фантастика, боевик, комедия, приключения, 1994] BDRip-AVC, Mvo

salma3

29 | 9

1.46 ГБ

В этой теме нет новых непрочитанных сообщений. Двойные неприятности / Double Trouble [боевик, триллер, комедия, криминал, 1992] HDTVRip, Dvo [НТВ+]

salma3

36 | 6

1.37 ГБ

В этой теме нет новых непрочитанных сообщений. Двойные неприятности / Double Trouble / Bao Dao Shuang Xiong [боевик, мелодрама, комедия, 2012] WEB-DLRip, Dvo

salma3

19 | 4

747.04 МБ


Начать новую тему Ответить на тему  [ 1 сообщение ] 




Для Мосгорсуда, Роскомнадзора и рекламодателей:: mosgorsud-torrent[собачка]yandex.ru