Торрент файл
скачать торрент магнет ссылка Добавлен: 04 дек 2013, 21:04
Размер: 1.44 ГБ
Сидеров: 72
Личеров: 4
Статус: (Dracon)
Автор

СообщениеДобавлено: 04 дек 2013, 21:04 

Не в сети
Супермодератор
Аватара пользователя
Дата регистрации:
15 фев 2012, 16:44
Возраст: 28
Спасибо: 6594 / 2145
Сообщения: 44279
Два нуля / Double zero

Год выхода: 2004
Жанр: Комедия, боевик
Режиссер: Жерар Пирес

В ролях: Эрик Жюдор, Рамзи Бедиа, Эдуар Баэр, Джорджанна Робертсон, Франсуа Шатто, Дидье Фламан, Росси де Пальма, Нино Киртадзе

О фильме:
Бен и Вилл — самые бездарные агенты, полные нули, круглые идиоты. Кому же еще поручить суперсложное, сверхсекретное задание? Глава преступного синдиката украл ядерную бомбу. Обезвредить злодея сможет далеко не каждый дурак, а только наши безбашенные друзья.

Их ждет незабываемый вояж из Парижа на сказочную Ямайку, прямо в логово врага. Тупиц ничто не остановит. Им все нипочем — ни танки, ни армия ниндзя, ни команда обнаженных топ-моделей. У чудаков своя логика. Они спасут мир. Джеймс Бонд отдыхает!



Страна: Франция
Студия: Warner Bros France
Продолжительность: 01:26:42
Перевод: Дубляж (Лицензия)

Файл
Качество: DVDRip-AVC
Формат файла: AVC
Видео кодек: h264
Аудио кодек: AC3
Видео: Bit rate: 2 008 Kbps, Width: 720 pixels, Height: 304 pixels
Звук: Русский AC3, 384 Kbps, 6 channels

Video
ID : 1
Format : AVC
Format/Info : Advanced Video Codec
Format profile : High@L4.1
Format settings, CABAC : Yes
Format settings, ReFrames : 5 frames
Codec ID : V_MPEG4/ISO/AVC
Duration : 1h 26mn
Bit rate : 2 008 Kbps
Width : 720 pixels
Height : 304 pixels
Display aspect ratio : 2.35:1
Frame rate mode : Constant
Frame rate : 23.976 fps
Color space : YUV
Chroma subsampling : 4:2:0
Bit depth : 8 bits
Scan type : Progressive
Bits/(Pixel*Frame) : 0.383
Stream size : 1.18 GiB (82%)

Audio
ID : 2
Format : AC-3
Format/Info : Audio Coding 3
Mode extension : CM (complete main)
Format settings, Endianness : Big
Codec ID : A_AC3
Duration : 1h 26mn
Bit rate mode : Constant
Bit rate : 384 Kbps
Channel(s) : 6 channels
Channel positions : Front: L C R, Side: L R, LFE
Sampling rate : 48.0 KHz
Bit depth : 16 bits
Compression mode : Lossy
Stream size : 238 MiB (16%)
Default : Yes
Forced : No


Релиз от: ..::ArchangeL::..


_________________
Проголосуй за трекер Открытый торрент трекер - RUS-MEDIA.ORG

Проголосуй Открытый торрент трекер - RUS-MEDIA.ORG



реклама партнёра


Вернуться к началу
 Профиль Отправить личное сообщение  
 
   Похожие торренты   Автор   Торрент   Размер 
В этой теме нет новых непрочитанных сообщений. [MaxineX.com] Maxine X All My Holes Double Filled By BBC In My First Double Anal Scene Ever – complete scene [September 10, 2017 г., Anal, BBC, Creampie, Double Anal, Double Oral, double penetration, Double Vag, MILF, threesome]

salma3

17 | 5

882.1 МБ

В этой теме нет новых непрочитанных сообщений. [Maxinex.com] Maxine X, Selah Rain (Triple Double) [November 3, 2017 г., Anal, BBC, Cum Swapping, Double Anal, Double Oral, Double Vag, foursome, Group Sex, Interracial, squirting]

salma3

14 | 5

1.44 ГБ

В этой теме нет новых непрочитанных сообщений. Department Of Double Penetration / Отдел двойного проникновения (Maestro Claudio, Perv City) [2017 г., Double Anal, DP, Double Vaginal Penetration, First Double Penetration, Gonzo, Threesomes, HDRip, 1080p]

max77777

5 | 2

4.97 ГБ

В этой теме нет новых непрочитанных сообщений. [JulesJordan.com] Angel Smalls (It Takes A Double Anal, A Double Vag A DP To Satisfy This Slut) [2017-04-14 г., 3 Way, Anal, Ass To Mouth, Big Cocks, Blondes, Blowjobs, Deep Throat, Double Anal, Double Penetration, Facial, Gonzo, All Sex, 4

salma3

2 | 2

5.95 ГБ

В этой теме нет новых непрочитанных сообщений. [JulesJordan.com] Angel Smalls (It Takes A Double Anal, A Double Vag & A DP To Satisfy This Slut / 14.04.17) [2017 г., Anal, Ass To Mouth, Big Cocks, Blondes, Blowjobs, Deep Throat, Double Anal, Double Penetration, Facial, Natural, Gonzo, 7

salma3

11 | 4

1005.34 МБ

В этой теме нет новых непрочитанных сообщений. [JulesJordan.com] Angel Smalls (It Takes A Double Anal, A Double Vag & A DP To Satisfy This Slut / 14.04.17) [2017 г., Anal, Ass To Mouth, Big Cocks, Blondes, Blowjobs, Deep Throat, Double Anal, Double Penetration, Facial, Natural, Gonzo]

salma3

9 | 3

276.48 МБ

В этой теме нет новых непрочитанных сообщений. Double Cocks & Double D's (Explicit Empire) [2017 г., All Sex, Oral, Gonzo, Big Tits, Threesomes, DP, Anal, DVDRip]

max77777

30 | 41

1.32 ГБ


Начать новую тему Ответить на тему  [ 1 сообщение ] 




Для Мосгорсуда, Роскомнадзора и рекламодателей:: mosgorsud-torrent[собачка]yandex.ru