Торрент файл
скачать торрент магнет ссылка Добавлен: 04 дек 2013, 11:16
Размер: 1.37 ГБ
Сидеров: 427
Личеров: 33
Статус: (Dracon)
Автор

СообщениеДобавлено: 04 дек 2013, 11:16 

Не в сети
Зам. Админа
Аватара пользователя
Дата регистрации:
02 дек 2010, 12:39
Спасибо: 12461 / 214
Сообщения: 27968
Год выпуска: 2013
Жанр: драма, мелодрама, комедия
Режиссер: Стайан Кристиансен / Stian Kristiansen
В ролях: Eili Harboe, Øyvind Larsen Runestad, Кристоффер Йонер, Johanna Knudsen Rostad, Ruben Rosbach, Reno-Marée Muren, Kim André Bjørkesett, Tuva Kvale Halseid, Anne Regine Ellingsæter, Рольф Кристиан Ларсен, Enja Henriksen, Edvard Nordbø

Описание: Юная Тале играет в театральной труппе, и скоро на сцене будет ставиться пьеса известного норвежского писателя Юна Фоссе. Кресло режиссера соглашается занять профессиональный актер, увязший в жизненном кризисе. Но соглашается с определенными условиями — он берет на главную мужскую роль местного героя, великого футболиста и идиота. Вскоре подростки понимают, что амбиции режиссера сделают из их жизни ад.


Страна: Норвегия
Продолжительность: 01:33:43
Перевод: Любительский (двухголосый)[den904 и DeadSno]
Субтитры: нет

Формат: AVI
Качество: HDRip
Видео: XviD, 720x304 (2.35:1), 1630 kbps, 23,976 fps, 0,311 bpp
Аудио: AC3 / 5.1 / 48 kHz / 448 kbps / 16 bit




Общее
Формат : AVI
Формат/Информация : Audio Video Interleave
Размер файла : 1,37 Гбайт
Продолжительность : 1 ч. 33 м.
Общий поток : 2088 Кбит/сек
Программа кодирования : VirtualDubMod 1.5.10.3 | http://www.virtualdub-fr.org || (build 2550/release)
Библиотека кодирования : VirtualDubMod build 2550/release

Видео
Идентификатор : 0
Формат : MPEG-4 Visual
Профиль формата : Advanced Simple@L5
Параметр BVOP формата : 1
Параметр QPel формата : Нет
Параметр GMC формата : Без точки перехода
Параметр матрицы формата : Выборочная
Идентификатор кодека : XVID
Идентификатор кодека/Подсказка : XviD
Продолжительность : 1 ч. 33 м.
Битрейт : 1631 Кбит/сек
Ширина : 720 пикселей
Высота : 304 пикселя
Соотношение сторон : 2,35:1
Частота кадров : 23,976 кадра/сек
Цветовое пространство : YUV
Субдискретизация насыщенности : 4:2:0
Битовая глубина : 8 бит
Тип развёртки : Прогрессивная
Метод сжатия : С потерями
Бит/(Пиксели*Кадры) : 0.311
Размер потока : 1,07 Гбайт (78%)
Библиотека кодирования : XviD 1.2.1 (UTC 2008-12-04)

Аудио
Идентификатор : 1
Формат : AC-3
Формат/Информация : Audio Coding 3
Расширение режима : CM (complete main)
Параметр Endianness формата : Big
Идентификатор кодека : 2000
Продолжительность : 1 ч. 33 м.
Вид битрейта : Постоянный
Битрейт : 448 Кбит/сек
Каналы : 6 каналов
Расположение каналов : Front: L C R, Side: L R, LFE
Частота : 48,0 КГц
Битовая глубина : 16 бит
Метод сжатия : С потерями
Размер потока : 300 Мбайт (21%)
Выравнивание : Разделение по промежуткам
Продолжительность промежутка : 42 мс. (1,00 видеокадр)
Время предзагрузки промежутка : 500 мс.







реклама партнёра


Вернуться к началу
 Профиль  
 
   Похожие торренты   Автор   Торрент   Размер 
В этой теме нет новых непрочитанных сообщений. Blood Tsunami - For Faen! [2013,Thrash Metal,MP3]

PriZraK

0 | 1

72.06 МБ

В этой теме нет новых непрочитанных сообщений. Довольно слов / Enough Said [драма, мелодрама, комедия, 2013] HDRip, Mvo [Лицензия]

Dracon

482 | 7

1.41 ГБ

В этой теме нет новых непрочитанных сообщений. Захватывающее время / The Spectacular Now [драма, мелодрама, комедия, 2013] HDRip, Mvo

Dracon

1361 | 20

1.37 ГБ

В этой теме нет новых непрочитанных сообщений. Вот и Рождество / So This Is Christmas [драма, мелодрама, комедия, семейный, 2013] HDRip, Mvo

salma3

27 | 1

1.36 ГБ

В этой теме нет новых непрочитанных сообщений. Довольно слов / Enough Said [драма, мелодрама, комедия, 2013] HDRip, Mvo [iTunes]

Dracon

934 | 25

1.37 ГБ

В этой теме нет новых непрочитанных сообщений. Tsjuder - Legion Helvete [2011, Black Metal, MP3]

PriZraK

0 | 1

73.01 МБ

В этой теме нет новых непрочитанных сообщений. Идиот в Париже / Un idiot à Paris [Комедия, 1967] BDRip 1080p, Mvo+Sub

salma3

77 | 7

5.54 ГБ


Начать новую тему Ответить на тему  [ 1 сообщение ] 




Для Мосгорсуда, Роскомнадзора и рекламодателей:: mosgorsud-torrent[собачка]yandex.ru