Торрент файл
скачать торрент магнет ссылка Добавлен: 03 дек 2013, 14:57
Размер: 1.37 ГБ
Сидеров: 378
Личеров: 27
Статус: (salma3)
Автор

СообщениеДобавлено: 03 дек 2013, 14:57 

В сети
Супермодератор
Аватара пользователя
Дата регистрации:
15 фев 2012, 16:44
Возраст: 27
Спасибо: 5130 / 2089
Сообщения: 17350
Братство: Взлет геймеров / Rise of the Fellowship / The Fellows Hip: Rise of the Gamers

Год выхода: 2013
Жанр: фэнтези, комедия, приключения
Режиссер: Рон Ньюком

В ролях: Джастин Мо, Джейми Белл, Коул Мэтсон, Эмма Эрнест, Вульф Дж. Шерилл, Эрик Гарнер, Даг Хендерсон, Дрю Трементоззи

Описание:
Рэндалл Дули работает в магазине компьютерных игр и все свое свободное время тратит на онлайн-игры. Старший брат постоянно над ним подшучивает, мама его не понимает, к тому же он безнадежно влюблен в капитаншу команды чирлидеров. Однажды Рэндалл узнает, что во Флориде пройдет чемпионат по игре "Властелин колец". Он едет туда с твердым намерением победить.



Выпущено: США / Opening Act Productions
Продолжительность: 01:34:18
Озвучивание: Профессиональное (многоголосное) [НТВ+]

Файл
Качество: HDRip
Формат файла: AVI
Видео кодек: XviD
Аудио кодек: AC3
Видео: 1790 kb/s, 720x304, 23,976 fps
Аудио: AC3, 192 (2 ch)

Общее
Полное имя : D:ФильмыBratstvo.vzlet.gejmerov.2013.P.HDRip.1400MB.avi
Формат : AVI
Формат/Информация : Audio Video Interleave
Размер файла : 1,37 Гбайт
Продолжительность : 1 ч. 38 м.
Общий поток : 1992 Кбит/сек
Программа кодирования : VirtualDubMod 1.5.10.2 (build 2540/release)
Библиотека кодирования : VirtualDubMod build 2540/release

Видео
Идентификатор : 0
Формат : MPEG-4 Visual
Профиль формата : Advanced Simple@L5
Параметр BVOP формата : 2
Параметр QPel формата : Нет
Параметр GMC формата : Без точки перехода
Параметр матрицы формата : Default (MPEG)
Идентификатор кодека : XVID
Идентификатор кодека/Подсказка : XviD
Продолжительность : 1 ч. 38 м.
Битрейт : 1791 Кбит/сек
Ширина : 720 пикселей
Высота : 304 пикселя
Соотношение сторон : 2,35:1
Частота кадров : 23,976 кадра/сек
Цветовое пространство : YUV
Субдискретизация насыщенности : 4:2:0
Битовая глубина : 8 бит
Тип развёртки : Прогрессивная
Метод сжатия : С потерями
Бит/(Пиксели*Кадры) : 0.341
Размер потока : 1,23 Гбайт (90%)
Библиотека кодирования : XviD 1.2.1 (UTC 2008-12-04)

Аудио
Идентификатор : 1
Формат : AC-3
Формат/Информация : Audio Coding 3
Расширение режима : CM (complete main)
Параметр Endianness формата : Big
Идентификатор кодека : 2000
Продолжительность : 1 ч. 38 м.
Вид битрейта : Постоянный
Битрейт : 192 Кбит/сек
Каналы : 2 канала
Расположение каналов : Front: L R
Частота : 48,0 КГц
Битовая глубина : 16 бит
Метод сжатия : С потерями
Размер потока : 135 Мбайт (10%)
Выравнивание : Разделение по промежуткам
Продолжительность промежутка : 42 мс. (1,00 видеокадр)
Время предзагрузки промежутка : 500 мс.


_________________



реклама партнёра


Вернуться к началу
 Профиль Отправить личное сообщение  
 
   Похожие торренты   Автор   Торрент   Размер 
В этой теме нет новых непрочитанных сообщений. On The Rise-On The Rise [2003, Rock, MP3]

PriZraK

0 | 1

139.28 МБ

В этой теме нет новых непрочитанных сообщений. Новый Человек-паук: Высокое напряжение / The Amazing Spider-Man 2: Rise of Electro [фэнтези, боевик, приключения, 2014] WEB-DLRip, Dub [iTunes]

Dracon

346 | 7

2.05 ГБ

В этой теме нет новых непрочитанных сообщений. Новый Человек-паук: Высокое напряжение / The Amazing Spider-Man 2: Rise of Electro [фэнтези, боевик, приключения, 2014] BDRip-AVC, Dub+Sub [Лицензия]

Dracon

479 | 31

2.91 ГБ

В этой теме нет новых непрочитанных сообщений. Новый Человек-паук: Высокое напряжение / The Amazing Spider-Man 2: Rise of Electro [фэнтези, боевик, приключения, 2014] WEB-DL 720p, Dub+Sub [iTunes]

Dracon

345 | 6

4.93 ГБ

В этой теме нет новых непрочитанных сообщений. Новый Человек-паук: Высокое напряжение / The Amazing Spider-Man 2: Rise of Electro [фэнтези, боевик, приключения, 2014] WEB-DLRip, Dub [Чистый звук]

salma3

2243 | 27

1.46 ГБ

В этой теме нет новых непрочитанных сообщений. Новый Человек-паук: Высокое напряжение / The Amazing Spider-Man 2: Rise of Electro [фэнтези, боевик, приключения, 2014] BDRemux 1080p, Dub+Sub [iTunes]

Dracon

53 | 5

25.75 ГБ

В этой теме нет новых непрочитанных сообщений. Новый Человек-паук: Высокое напряжение / The Amazing Spider-Man 2: Rise of Electro [фэнтези, боевик, приключения, 2014] BDRip 720p, Dub+Sub [iTunes]

Dracon

539 | 24

7.07 ГБ


Начать новую тему Ответить на тему  [ 1 сообщение ] 




Для Мосгорсуда, Роскомнадзора и рекламодателей:: mosgorsud-torrent[собачка]yandex.ru