Торрент файл
скачать торрент магнет ссылка Добавлен: 27 ноя 2013, 01:46
Размер: 1.46 ГБ
Сидеров: 3
Личеров: 3
Статус: (salma3)
Автор

СообщениеДобавлено: 27 ноя 2013, 01:46 

Не в сети
Супермодератор
Аватара пользователя
Дата регистрации:
15 фев 2012, 16:44
Возраст: 27
Спасибо: 5121 / 2089
Сообщения: 17342
Давай спасем Гарри / Let's Get Harry

Год выпуска: 1986
Жанр: боевик, приключения
Режиссер: Стюарт Розенберг, Алан Смити

В ролях: Фидель Абрего, Джер Бернс, Гэри Бьюзи, Сесиль Каллэн, Терри Камиллери, Элпидия Каррильо, Мэтт Кларк, Роберт Дювалл, Хавьер Эстрада, Гленн Фрэй, Рик Россович, Майкл Шоффлинг, Марк Хармон

Описание: Драматический боевик о похищении американского посла и случайно оказавшегося рядом рабочего бандой торговцев наркотиками в Южной Америке. У рабочего оказались друзья, которые при помощи наемника отправляются в джунгли его спасать



Страна: США
Продолжительность: 01:42:31
Перевод: Профессиональный (многоголосый, закадровый)

Файл
Качество: DVDRip
Формат файла: AVI
Видео кодек: XviD
Аудио кодек: AC3
Видео: 688x384 (1.79:1), 23.976 fps, XviD build 65 ~1836 kbps
Аудио: 48 kHz, AC3 Dolby Digital, 2/0 (L,R) ch, ~192 kbps





General
Format : AVI
Format/Info : Audio Video Interleave
File size : 1.46 GiB
Duration : 1h 42mn
Overall bit rate : 2 038 Kbps
Writing application : VirtualDubMod 1.5.10.2 (build 2540/release)
Writing library : VirtualDubMod build 2540/release

Video
ID : 0
Format : MPEG-4 Visual
Format profile : Advanced Simple@L5
Format settings, BVOP : 1
Format settings, QPel : No
Format settings, GMC : No warppoints
Format settings, Matrix : Custom
Codec ID : XVID
Codec ID/Hint : XviD
Duration : 1h 42mn
Bit rate : 1 836 Kbps
Width : 688 pixels
Height : 384 pixels
Display aspect ratio : 16:9
Frame rate : 23.976 fps
Color space : YUV
Chroma subsampling : 4:2:0
Bit depth : 8 bits
Scan type : Progressive
Compression mode : Lossy
Bits/(Pixel*Frame) : 0.290
Stream size : 1.31 GiB (90%)
Writing library : XviD 65

Audio
ID : 1
Format : AC-3
Format/Info : Audio Coding 3
Mode extension : CM (complete main)
Format settings, Endianness : Big
Codec ID : 2000
Duration : 1h 42mn
Bit rate mode : Constant
Bit rate : 192 Kbps
Channel(s) : 2 channels
Channel positions : Front: L R
Sampling rate : 48.0 KHz
Bit depth : 16 bits
Compression mode : Lossy
Stream size : 141 MiB (9%)
Alignment : Split accross interleaves
Interleave, duration : 42 ms (1.00 video frame)
Interleave, preload duration : 500 ms


_________________



реклама партнёра


Вернуться к началу
 Профиль Отправить личное сообщение  
 
   Похожие торренты   Автор   Торрент   Размер 
В этой теме нет новых непрочитанных сообщений. Двуличие / Trouble (Гарри Клевен / Harry Cleven)[2005г., Франция, триллер, DVDRip-AVC] MVO

Alfredovich

102 | 7

1.46 ГБ

В этой теме нет новых непрочитанных сообщений. Гарри и Уолтер едут в Нью-Йорк / Harry and Walter Go to New York [комедия, криминал, 1976] DVDRip, Mvo

salma3

215 | 43

1.47 ГБ

В этой теме нет новых непрочитанных сообщений. Призраки Гарри Пэйна: Зло не умрет никогда / The Haunting of Harry Payne [ужасы, триллер, 2014] DVDRip, dvo

Dracon

184 | 7

1.41 ГБ

В этой теме нет новых непрочитанных сообщений. Когда Гарри встретил Салли / When Harry Met Sally... [драма, мелодрама, комедия, 1989] BDRip 720p, Mvo+Avo+Sub [Лицензия]

salma3

62 | 3

5.76 ГБ

В этой теме нет новых непрочитанных сообщений. Опасная территория / Choke Canyon [боевик, фантастика, приключения, 1986] DVDRip, Mvo [ВГТРК]

salma3

130 | 21

1.45 ГБ

В этой теме нет новых непрочитанных сообщений. VA - Виктор Цой: Спасём мир (Рок. 2014) MP3

Aleksandr.ru

81 | 2

141.56 МБ

В этой теме нет новых непрочитанных сообщений. Formerly Fat Harry - Formerly Fat Harry [2012, Psychedelic Folk Rock, MP3]

PriZraK

0 | 1

99.93 МБ


Начать новую тему Ответить на тему  [ 1 сообщение ] 




Для Мосгорсуда, Роскомнадзора и рекламодателей:: mosgorsud-torrent[собачка]yandex.ru