Торрент файл
скачать торрент магнет ссылка Добавлен: 26 ноя 2013, 21:53
Размер: 746.59 МБ
Сидеров: 25
Личеров: 2
Статус: (salma3)
Автор

СообщениеДобавлено: 26 ноя 2013, 21:53 

Не в сети
Супермодератор
Аватара пользователя
Дата регистрации:
15 фев 2012, 16:44
Возраст: 28
Спасибо: 6594 / 2145
Сообщения: 44279
Флэшбэк / Flashback

Год выпуска: 2011
Жанр: фантастика, комедия, приключения
Режиссер: Брендан Джексон Роджерс

В ролях: Эндрю Рамос, Уилл Филлипс, Алекса Каппьелло, Крис Хайдт, Александра Каппиелло, Брендан Джексон Роджерс, Николь Смит, Райан Роджерс

Описание: XXXII век нашей эры. Студия «Флэшбэк» — крупнейшая в мире кинокомпания, из-за бездарного руководства переживающая не лучшие времена. Молодой человек — кинофанат, который работает на студии мусорщиком, чрезвычайно амбициозен и мечтает вернуть кинокомпании былые славу и величие.



Страна: США
Продолжительность: 01:37:57
Перевод: Профессиональный (двухголосый)

Файл
Качество: SATRip
Формат файла: AVI
Видео кодек: XviD
Аудио кодек: AC3
Видео: 720x400 (1.80:1), 25 fps, XviD build 50 ~863 kbps avg, 0.12 bit/pixel
Аудио: 48 kHz, AC3 Dolby Digital, 2/0 (L,R) ch, ~192 kbps

Сэмпл


Общее
Полное имя : D:\SATRIP 2\fleshback\fleshback.2011.SATRip.avi
Формат : AVI
Формат/Информация : Audio Video Interleave
Размер файла : 747 Мбайт
Продолжительность : 1 ч. 37 м.
Общий поток : 1066 Кбит/сек
Программа кодирования : VirtualDubMod 1.5.10.3 (build 2550/release)
Библиотека кодирования : VirtualDubMod build 2550/release

Видео
Идентификатор : 0
Формат : MPEG-4 Visual
Профиль формата : Advanced Simple@L5
Параметр BVOP формата : 2
Параметр QPel формата : Нет
Параметр GMC формата : Без точки перехода
Параметр матрицы формата : Выборочная
Идентификатор кодека : XVID
Идентификатор кодека/Подсказка : XviD
Продолжительность : 1 ч. 37 м.
Битрейт : 864 Кбит/сек
Ширина : 720 пикселей
Высота : 400 пикселей
Соотношение сторон : 16:9
Частота кадров : 25,000 кадров/сек
Цветовое пространство : YUV
Субдискретизация насыщенности : 4:2:0
Битовая глубина : 8 бит
Тип развёртки : Прогрессивная
Метод сжатия : С потерями
Бит/(Пиксели*Кадры) : 0.120
Размер потока : 605 Мбайт (81%)
Библиотека кодирования : XviD 1.2.1 (UTC 2008-12-04)

Аудио
Идентификатор : 1
Формат : AC-3
Формат/Информация : Audio Coding 3
Расширение режима : CM (complete main)
Идентификатор кодека : 2000
Продолжительность : 1 ч. 37 м.
Вид битрейта : Постоянный
Битрейт : 192 Кбит/сек
Каналы : 2 канала
Расположение каналов : Front: L R
Частота : 48,0 КГц
Битовая глубина : 16 бит
Метод сжатия : С потерями
Размер потока : 135 Мбайт (18%)
Выравнивание : Соединение по промежуткам
Продолжительность промежутка : 40 мс. (1,00 видеокадр)
Время предзагрузки промежутка : 512 мс.







Рип: maks159951


_________________
Проголосуй за трекер Открытый торрент трекер - RUS-MEDIA.ORG

Проголосуй Открытый торрент трекер - RUS-MEDIA.ORG



реклама партнёра


Вернуться к началу
 Профиль Отправить личное сообщение  
 
   Похожие торренты   Автор   Торрент   Размер 
В этой теме нет новых непрочитанных сообщений. Флэшбэк / Flashback [боевик, драма, комедия, криминал, приключения, 1990] WEB-DLRip-AVC, Dvo

salma3

52 | 11

1.46 ГБ

В этой теме нет новых непрочитанных сообщений. Флэшбэк / Flashback [Боевик, драма, комедия, 1990] WEB-DLRip, Dvo

salma3

0 | 1

1.61 ГБ

В этой теме нет новых непрочитанных сообщений. Флэшбэк / Flashback [боевик, драма, комедия, 1990] WEB-DL 720p, Dvo

salma3

24 | 9

3.68 ГБ

В этой теме нет новых непрочитанных сообщений. Jagged Alliance: Flashback [Indie, RPG, Strategy, 2014] [RePack]

Nickolas3435

562 | 15

879.79 МБ

В этой теме нет новых непрочитанных сообщений. Jagged Alliance: Flashback [Strategy (Real-time, Turn-based, Tactical), 3D,2014][Лицензия]

ruslan70x70

58 | 5

1.41 ГБ

В этой теме нет новых непрочитанных сообщений. Невероятные приключения Билла и Теда / Bill & Ted's Excellent Adventure [фантастика, комедия, приключения, 1989] BDRip, Dvo

salma3

62 | 14

1.45 ГБ

В этой теме нет новых непрочитанных сообщений. Человек из будущего / The Tomorrow Man [фантастика, приключения, 1996] SATRip, Mvo+Avo

salma3

73 | 25

1.43 ГБ


Начать новую тему Ответить на тему  [ 1 сообщение ] 




Для Мосгорсуда, Роскомнадзора и рекламодателей:: mosgorsud-torrent[собачка]yandex.ru