Торрент файл
скачать торрент магнет ссылка Добавлен: 25 ноя 2013, 18:22
Размер: 2.89 ГБ
Сидеров: 91
Личеров: 11
Статус: (salma3)
Автор

СообщениеДобавлено: 25 ноя 2013, 18:22 

Не в сети
Супермодератор
Аватара пользователя
Дата регистрации:
15 фев 2012, 16:44
Возраст: 27
Спасибо: 5131 / 2089
Сообщения: 17372
Год выхода: 2013
Жанр: ужасы, боевик, комедия
Режиссер: Мэтт Есперсен, Маклейн Нельсон
В ролях: Джули Гонсало, Адам Джонсон, Алексис Нэп, Гэри Коул, Маклейн Нельсон, Мэтт Маттсон, Барт Джонсон, Клэр Нидерпрюэм, Фрэнки Леванджи, Джейк Ван Вагонер

О фильме:
300 лет назад вампир Уэйн Грецки утратил способность «вампирствовать» после потери любви всей жизни. В наши дни он коллежский профессор, однако вампирическое проклятие продолжает преследовать его ..



Выпущено: США
Продолжительность: 01:35:57
Озвучивание: Профессиональное (многоголосое) [Нтв+]
Примечание: В фильме присутствует дефект звука (рассинхрон) первые полторы минуты!

Файл
Формат: MKV
Качество: WEB-DL 720p [NGB]
Видео: 3645 kb/s, 1280x720
Аудио: Russian: AC3, 192 kb/s (2 ch) / English: AC3, 384 kb/s (6 ch)
Субтитры: English
Дополнительно: Сохранены оригинальные чаптеры как на Blu-Ray
Размер: 2.89 Gb
Скачать: Сэмпл

Релиз группы:

General
Vamp.U.2013.WEB-DL.720p.CINEMANIA.mkv
Format : Matroska
Format version : Version 4 / Version 2
File size : 2.89 GiB
Duration : 1h 35mn
Overall bit rate : 4 306 Kbps
Movie name : J.C.@NGB
Encoded date : UTC 2013-11-21 21:06:59
Writing application : mkvmerge v6.5.0 ('Isn't she lovely') built on Oct 20 2013 12:50:05
Writing library : libebml v1.3.0 + libmatroska v1.4.1

Video
ID : 1
Format : AVC
Format/Info : Advanced Video Codec
Format profile : High@L3.1
Format settings, CABAC : No
Format settings, ReFrames : 2 frames
Format settings, GOP : N=1
Codec ID : V_MPEG4/ISO/AVC
Duration : 1h 35mn
Bit rate : 3 645 Kbps
Width : 1 280 pixels
Height : 720 pixels
Display aspect ratio : 16:9
Frame rate mode : Constant
Frame rate : 23.976 fps
Color space : YUV
Chroma subsampling : 4:2:0
Bit depth : 8 bits
Scan type : Progressive
Bits/(Pixel*Frame) : 0.165
Stream size : 2.44 GiB (85%)
Title : Release Group CINEMANIA
Language : English
Default : Yes
Forced : No
Color primaries : BT.709
Transfer characteristics : BT.709
Matrix coefficients : BT.709

Audio #1
ID : 2
Format : AC-3
Format/Info : Audio Coding 3
Mode extension : CM (complete main)
Format settings, Endianness : Big
Codec ID : A_AC3
Duration : 1h 35mn
Bit rate mode : Constant
Bit rate : 192 Kbps
Channel(s) : 2 channels
Channel positions : Front: L R
Sampling rate : 48.0 KHz
Bit depth : 16 bits
Compression mode : Lossy
Stream size : 132 MiB (4%)
Title : Нтв+
Language : Russian
Default : Yes
Forced : Yes

Audio #2
ID : 3
Format : AC-3
Format/Info : Audio Coding 3
Mode extension : CM (complete main)
Format settings, Endianness : Big
Codec ID : A_AC3
Duration : 1h 35mn
Bit rate mode : Constant
Bit rate : 384 Kbps
Channel(s) : 6 channels
Channel positions : Front: L C R, Side: L R, LFE
Sampling rate : 48.0 KHz
Bit depth : 16 bits
Compression mode : Lossy
Stream size : 264 MiB (9%)
Language : English
Default : No
Forced : No

Text
ID : 4
Format : UTF-8
Codec ID : S_TEXT/UTF8
Codec ID/Info : UTF-8 Plain Text
Language : English
Default : No
Forced : No

Menu
00:00:00.000 : en:Chapter 1
00:09:55.000 : en:Chapter 2
00:17:36.000 : en:Chapter 3
00:27:36.000 : en:Chapter 4
00:37:05.000 : en:Chapter 5
00:47:05.000 : en:Chapter 6
00:59:07.000 : en:Chapter 7
01:07:48.000 : en:Chapter 8
01:14:58.000 : en:Chapter 9
01:22:50.000 : en:Chapter 10
01:32:30.000 : en:Chapter 11


_________________



реклама партнёра


Вернуться к началу
 Профиль Отправить личное сообщение  
 
   Похожие торренты   Автор   Торрент   Размер 
В этой теме нет новых непрочитанных сообщений. Университетский вампир / Vamp U [ужасы, боевик, комедия, 2013] BDRip 1080p, Dvo [НТВ+]

salma3

41 | 6

6.76 ГБ

В этой теме нет новых непрочитанных сообщений. Вамп / Vamp [ужасы, комедия, 1986] HDRip, Dvo

salma3

23 | 2

1.45 ГБ

В этой теме нет новых непрочитанных сообщений. Кровавый выстрел / Blood Shot (Дитрих Джонстон) [Ужасы, Боевик, Комедия, 2013] BDRip 720p, avo

Dracon

19 | 12

4.5 ГБ

В этой теме нет новых непрочитанных сообщений. Злая еда / Evil Feed [ужасы, боевик, 2013] WEB-DL 720p, Avo+Sub

salma3

22 | 3

2.55 ГБ

В этой теме нет новых непрочитанных сообщений. Боевые псы / Battledogs [ужасы, фантастика, боевик, 2013] BDRip 720p, Mvo

salma3

55 | 6

5.86 ГБ

В этой теме нет новых непрочитанных сообщений. Уничтожение / Raze - Fight or Die [ужасы, боевик, 2013] BDRip 720p, Dvo+Sub

salma3

42 | 8

3.69 ГБ

В этой теме нет новых непрочитанных сообщений. Одичавшие / Savaged [ужасы, боевик, триллер, драма, 2013] BDRip 720p, dvo

Dracon

47 | 4

4.07 ГБ


Начать новую тему Ответить на тему  [ 1 сообщение ] 




Для Мосгорсуда, Роскомнадзора и рекламодателей:: mosgorsud-torrent[собачка]yandex.ru