Торрент файл
скачать торрент магнет ссылка Добавлен: 25 ноя 2013, 11:52
Размер: 1.7 ГБ
Сидеров: 38
Личеров: 2
Статус: (Dracon)
Автор

СообщениеДобавлено: 25 ноя 2013, 11:52 

Не в сети
Зам. Админа
Аватара пользователя
Дата регистрации:
02 дек 2010, 12:39
Спасибо: 12461 / 214
Сообщения: 27968
Год выхода: 2013
Жанр: боевик, криминал
Режиссер: Кортни Соломон
В ролях: Итан Хоук, Селена Гомес, Джон Войт, Ребекка Бьюдиг, Пол Фримен, Брюс Пэйн, Димо Алексиев, Велислав Павлов, Деян Ангелов

О фильме: Бывшему гонщику Бренту приходится сесть за руль и следовать указаниям таинственного человека, чтобы спасти свою похищенную жену.



Выпущено: США, Болгария
Продолжительность: 01:30:04
Озвучивание: Профессиональное (многоголосое) [Baibako]

Качество: BDRip-AVC
Формат: MKV
Видео: 1865 kb/s, 1024x424
Аудио: Russian: AC3, 384 kb/s (6 ch) / English: AC3, 448 kb/s (6 ch)

Format : Matroska
Format version : Version 4 / Version 2
File size : 1.70 GiB
Duration : 1h 30mn
Overall bit rate : 2 696 Kbps
Encoded date : UTC 2013-11-25 07:29:16
Writing application : mkvmerge v6.1.0 ('Old Devil') built on Mar 4 2013 09:10:42
Writing library : libebml v1.3.0 + libmatroska v1.4.0

Video
ID : 1
Format : AVC
Format/Info : Advanced Video Codec
Format profile : High@L4.1
Format settings, CABAC : Yes
Format settings, ReFrames : 10 frames
Codec ID : V_MPEG4/ISO/AVC
Duration : 1h 30mn
Bit rate : 1 865 Kbps
Width : 1 024 pixels
Height : 424 pixels
Display aspect ratio : 2.40:1
Frame rate : 23.976 fps
Color space : YUV
Chroma subsampling : 4:2:0
Bit depth : 8 bits
Scan type : Progressive
Bits/(Pixel*Frame) : 0.179
Stream size : 1.14 GiB (67%)
Title : Rip by 03nazar03
Writing library : x264 core 130 r2273 b3065e6
Encoding settings : cabac=1 / ref=10 / deblock=1:-3:-3 / analyse=0x3:0x133 / me=umh / subme=11 / psy=1 / psy_rd=1.00:0.20 / mixed_ref=1 / me_range=32 / chroma_me=1 / trellis=2 / 8x8dct=1 / cqm=0 / deadzone=21,11 / fast_pskip=0 / chroma_qp_offset=-3 / threads=12 / lookahead_threads=2 / sliced_threads=0 / nr=0 / decimate=0 / interlaced=0 / bluray_compat=0 / constrained_intra=0 / bframes=8 / b_pyramid=2 / b_adapt=2 / b_bias=0 / direct=3 / weightb=1 / open_gop=0 / weightp=2 / keyint=250 / keyint_min=23 / scenecut=40 / intra_refresh=0 / rc=2pass / mbtree=0 / bitrate=1865 / ratetol=1.0 / qcomp=0.60 / qpmin=0 / qpmax=69 / qpstep=4 / cplxblur=20.0 / qblur=0.5 / ip_ratio=1.40 / pb_ratio=1.30 / aq=1:1.00
Language : English
Default : Yes
Forced : No

Audio #1
ID : 2
Format : AC-3
Format/Info : Audio Coding 3
Mode extension : CM (complete main)
Format settings, Endianness : Big
Codec ID : A_AC3
Duration : 1h 30mn
Bit rate mode : Constant
Bit rate : 384 Kbps
Channel(s) : 6 channels
Channel positions : Front: L C R, Side: L R, LFE
Sampling rate : 48.0 KHz
Bit depth : 16 bits
Compression mode : Lossy
Stream size : 247 MiB (14%)
Language : Russian
Default : Yes
Forced : No

Audio #2
ID : 3
Format : AC-3
Format/Info : Audio Coding 3
Mode extension : CM (complete main)
Format settings, Endianness : Big
Codec ID : A_AC3
Duration : 1h 30mn
Bit rate mode : Constant
Bit rate : 448 Kbps
Channel(s) : 6 channels
Channel positions : Front: L C R, Side: L R, LFE
Sampling rate : 48.0 KHz
Bit depth : 16 bits
Compression mode : Lossy
Stream size : 289 MiB (17%)
Language : English
Default : No
Forced : No




реклама партнёра


Вернуться к началу
 Профиль  
 
   Похожие торренты   Автор   Торрент   Размер 
В этой теме нет новых непрочитанных сообщений. Погнали! / Getaway [боевик, криминал, 2013] Blu-Ray Remux 1080p, Mvo [iTunes, Baibako]

Ανδρέας

98 | 40

17.39 ГБ

В этой теме нет новых непрочитанных сообщений. Погнали! / Getaway [боевик, криминал, 2013] BDRip 720p, Mvo [iTunes]

Ανδρέας

427 | 36

3.74 ГБ

В этой теме нет новых непрочитанных сообщений. Погнали! / Getaway [Боевик, криминал, 2013] DVD5, Mvo+Sub

salma3

3 | 2

4.37 ГБ

В этой теме нет новых непрочитанных сообщений. Погнали! / Getaway [боевик, криминал, 2013] HDRip, Mvo [iTunes]

Ανδρέας

1549 | 94

1.37 ГБ

В этой теме нет новых непрочитанных сообщений. Поспешное бегство / Fast Getaway [боевик, комедия, криминал, 1991] HDTVRip, Mvo

salma3

13 | 2

1.46 ГБ

В этой теме нет новых непрочитанных сообщений. Королевство викингов / Vikingdom [Приключения, фэнтези, боевик, 2013] BDRip 1080p, Mvo [3D-Video] BaibaKo

salma3

1052 | 182

7.61 ГБ

В этой теме нет новых непрочитанных сообщений. Джо / Joe [криминал, драма, 2013] WEB-DL 720p, mvo [BaibaKo]

Dracon

336 | 11

3.75 ГБ


Начать новую тему Ответить на тему  [ 1 сообщение ] 




Для Мосгорсуда, Роскомнадзора и рекламодателей:: mosgorsud-torrent[собачка]yandex.ru