Торрент файл
скачать торрент магнет ссылка Добавлен: 24 ноя 2013, 00:57
Размер: 1.37 ГБ
Сидеров: 66
Личеров: 8
Статус: (salma3)
Автор

СообщениеДобавлено: 24 ноя 2013, 00:57 

Не в сети
Супермодератор
Аватара пользователя
Дата регистрации:
15 фев 2012, 16:44
Возраст: 27
Спасибо: 5143 / 2090
Сообщения: 17514
Барон против демонов / El barón contra los Demonios

Год выхода: 2006
Жанр: фантастика, фэнтези, боевик, приключения
Режиссер: Рикардо Рибеллес

В ролях: Мирейа Алерт, Жерардо Аренас, Альберт Аррибас, Ева Барсело, Ирен Бэлза, Ксавьер Бертран, Франциско Делгадо, Куике Феррагут, Паулина Гальвес, Хелена Лукумберр

О фильме:
На рубеже 21 и 22 века Земля погружена в кровопролитную войну между добром и злом. На стороне зла выступают кровожадные инопланетяне Демоны, а Землю защищает супер-герой Барон.



Страна: Испания
Продолжительность: 01:35:42
Перевод: Авторский (одноголосый закадровый) [Алексеев]

Файл
Качество: DVDRip
Формат файла: AVI
Видео кодек: XviD
Аудио кодек: AC3
Видео: 720x400, 1849 kbps, 25,000 fps, 0,257 Bits/(Pixel*Frame)
Звук: AC3, 48 kHx, 2 ch, 192 kbps

General
Complete name : G:The Baron Against The Demons_2006.DVDRip_by_Bathory.avi
Format : AVI
Format/Info : Audio Video Interleave
File size : 1.37 GiB
Duration : 1h 35mn
Overall bit rate : 2 051 Kbps
Writing application : VirtualDubMod 1.5.10.3 | http://www.virtualdub-fr.org || (build 2550/release)
Writing library : VirtualDubMod build 2550/release

Video
ID : 0
Format : MPEG-4 Visual
Format profile : Advanced Simple@L5
Format settings, BVOP : 1
Format settings, QPel : No
Format settings, GMC : No warppoints
Format settings, Matrix : Default (MPEG)
Codec ID : XVID
Codec ID/Hint : XviD
Duration : 1h 35mn
Bit rate : 1 849 Kbps
Width : 720 pixels
Height : 400 pixels
Display aspect ratio : 16:9
Frame rate : 25.000 fps
Color space : YUV
Chroma subsampling : 4:2:0
Bit depth : 8 bits
Scan type : Progressive
Compression mode : Lossy
Bits/(Pixel*Frame) : 0.257
Stream size : 1.24 GiB (90%)
Writing library : XviD 73

Audio
ID : 1
Format : AC-3
Format/Info : Audio Coding 3
Mode extension : CM (complete main)
Format settings, Endianness : Big
Codec ID : 2000
Duration : 1h 35mn
Bit rate mode : Constant
Bit rate : 192 Kbps
Channel count : 2 channels
Channel positions : Front: L R
Sampling rate : 48.0 KHz
Bit depth : 16 bits
Compression mode : Lossy
Stream size : 131 MiB (9%)
Alignment : Split accross interleaves
Interleave, duration : 40 ms (1.00 video frame)
Interleave, preload duration : 500 ms


Релиз от: Автор рипа: _Bathory_


_________________



реклама партнёра


Вернуться к началу
 Профиль Отправить личное сообщение  
 
   Похожие торренты   Автор   Торрент   Размер 
В этой теме нет новых непрочитанных сообщений. Красный барон / Der Rote Baron [боевик, драма, военный, биография, 2008] HDRip, Dvo

salma3

32 | 4

1.45 ГБ

В этой теме нет новых непрочитанных сообщений. Бэтмен против Супермена: На заре справедливости / Batman v Superman: Dawn of Justice [фантастика, фэнтези, боевик, приключения, 2016] CAMRip, Dub

salma3

6137 | 374

1.46 ГБ

В этой теме нет новых непрочитанных сообщений. Бэтмен против Супермена: На заре справедливости / Batman v Superman: Dawn of Justice [Фантастика, фэнтези, боевик, приключения, 2016] WEB-DLRip, Dub [Чистый Звук]

salma3

2136 | 76

2.05 ГБ

В этой теме нет новых непрочитанных сообщений. Бэтмен против Супермена: На заре справедливости / Batman v Superman: Dawn of Justice [Фантастика, фэнтези, боевик, приключения, 2016] WEB-DLRip, Dub [Чистый Звук]

salma3

89 | 2

1.37 ГБ

В этой теме нет новых непрочитанных сообщений. Бэтмен против Супермена: На заре справедливости / Batman v Superman: Dawn of Justice [2016, фантастика, фэнтези, боевик, приключения, DCPrip | 2K, Hi10P | Тизер-трейлер]

Nickolas3435

255 | 20

539.67 МБ

В этой теме нет новых непрочитанных сообщений. Месть / Phairii phinaat paa mawrana [Приключения, боевик, фэнтези, 2006] DVDRip, Dvo

salma3

62 | 7

1.36 ГБ

В этой теме нет новых непрочитанных сообщений. Легенда Судсакорна / Legend of Sudsakorn [Фэнтези, боевик, приключения, 2006] DVDRip, Dvo

salma3

190 | 42

1.37 ГБ


Начать новую тему Ответить на тему  [ 1 сообщение ] 




Для Мосгорсуда, Роскомнадзора и рекламодателей:: mosgorsud-torrent[собачка]yandex.ru