Торрент файл
скачать торрент магнет ссылка Добавлен: 21 ноя 2013, 21:35
Размер: 1.46 ГБ
Сидеров: 121
Личеров: 10
Статус: (salma3)
Автор

СообщениеДобавлено: 21 ноя 2013, 21:35 

Не в сети
Супермодератор
Аватара пользователя
Дата регистрации:
15 фев 2012, 16:44
Возраст: 27
Спасибо: 5139 / 2089
Сообщения: 17411
Двойные неприятности / Няньки 2 / Double Trouble

Год выпуска: 1992
Жанр: боевик, комедия
Режиссер: Джон Парагон / John Paragon

В ролях: Питер Пол, Дэвид Пол, Родди МакДауэлл, Дэвид Кэрредин, Стив Кэнэли, Трой Донахью, Эдриенн-Джой Джонсон, Билл Муми, Джеймс Дуэн, Коллин Бернсен

Описание: Банда грабителей драгоценностей подставляет под подозрение братьев-близнецов, один из которых — полицейский, а второй — взломщик-рецидивист. Чтобы проучить обидчиков, они вынуждены стать партнерами. Посреди зажигательных погонь и ураганной стрельбы Дэвид пытается перевоспитать братца Питера и растолковать ему, что воровать — нехорошо!



Страна: США
Продолжительность: 01:26:31
Перевод 1: Профессиональный (многоголосый закадровый) СТС
Перевод 2: Профессиональный (двухголосый закадровый) ТНТ
Перевод 3: Авторский (одноголосый закадровый) Алексей Михалев

Качество видео: DVDRip
Формат: AVI
Кодек: XviD
Видео: 656x480 (1.37:1), 23.976 fps, XviD build 73 ~1819 kbps avg, 0.24 bit/pixel
Аудио 1: 48 kHz, MPEG Layer 3, 2 ch, ~192.00 kbps avg [СТС]
Аудио 2: 48 kHz, MPEG Layer 3, 2 ch, ~192.00 kbps avg [ТНТ]
Аудио 3: 48 kHz, AC3 Dolby Digital, 2/0 (L,R) ch, ~192 kbps [Михалев]


General
Complete name : D:РелизыDouble Trouble.1992.TRIPLERUS.DVDRip.XviD.MPEG Audio.AC3.avi
Format : AVI
Format/Info : Audio Video Interleave
File size : 1.46 GiB
Duration : 1h 26mn
Overall bit rate : 2 416 Kbps
Writing application : VirtualDubMod 1.5.10.2 (build 2540/release)
Writing library : VirtualDubMod build 2540/release

Video
ID : 0
Format : MPEG-4 Visual
Format profile : Advanced Simple@L5
Format settings, BVOP : 1
Format settings, QPel : No
Format settings, GMC : No warppoints
Format settings, Matrix : Custom
Codec ID : XVID
Codec ID/Hint : XviD
Duration : 1h 26mn
Bit rate : 1 821 Kbps
Width : 656 pixels
Height : 480 pixels
Display aspect ratio : 4:3
Frame rate : 23.976 fps
Color space : YUV
Chroma subsampling : 4:2:0
Bit depth : 8 bits
Scan type : Progressive
Compression mode : Lossy
Bits/(Pixel*Frame) : 0.241
Stream size : 1.10 GiB (75%)
Writing library : XviD 73

Audio #1
ID : 1
Format : MPEG Audio
Format version : Version 1
Format profile : Layer 3
Mode : Joint stereo
Codec ID : 55
Codec ID/Hint : MP3
Duration : 1h 26mn
Bit rate mode : Constant
Bit rate : 192 Kbps
Channel(s) : 2 channels
Sampling rate : 48.0 KHz
Compression mode : Lossy
Stream size : 119 MiB (8%)
Alignment : Aligned on interleaves
Interleave, duration : 42 ms (1.00 video frame)
Interleave, preload duration : 504 ms

Audio #2
ID : 2
Format : MPEG Audio
Format version : Version 1
Format profile : Layer 3
Codec ID : 55
Codec ID/Hint : MP3
Duration : 1h 26mn
Bit rate mode : Constant
Bit rate : 192 Kbps
Channel(s) : 2 channels
Sampling rate : 48.0 KHz
Compression mode : Lossy
Stream size : 119 MiB (8%)
Alignment : Aligned on interleaves
Interleave, duration : 42 ms (1.00 video frame)
Interleave, preload duration : 504 ms
Writing library : LAME3.98.2UU7oяЮл,m

Audio #3
ID : 3
Format : AC-3
Format/Info : Audio Coding 3
Mode extension : CM (complete main)
Format settings, Endianness : Big
Codec ID : 2000
Duration : 1h 26mn
Bit rate mode : Constant
Bit rate : 192 Kbps
Channel(s) : 2 channels
Channel positions : Front: L R
Sampling rate : 48.0 KHz
Bit depth : 16 bits
Compression mode : Lossy
Stream size : 119 MiB (8%)
Alignment : Split accross interleaves
Interleave, duration : 42 ms (1.00 video frame)
Interleave, preload duration : 500 ms




_________________



реклама партнёра


Вернуться к началу
 Профиль Отправить личное сообщение  
 
   Похожие торренты   Автор   Торрент   Размер 
В этой теме нет новых непрочитанных сообщений. Двойные неприятности / Double Trouble [боевик, триллер, комедия, криминал, 1992] HDTVRip, Dvo [НТВ+]

salma3

36 | 6

1.37 ГБ

В этой теме нет новых непрочитанных сообщений. Двойные неприятности / Double Trouble / Bao Dao Shuang Xiong [боевик, мелодрама, комедия, 2012] WEB-DLRip, Dvo

salma3

19 | 4

747.04 МБ

В этой теме нет новых непрочитанных сообщений. Я люблю неприятности / I Love Trouble [Боевик, мелодрама, комедия, 1994] BDRip 1080p, Dub+2Mvo+Dvo+3Avo+Sub

salma3

7 | 8

13.79 ГБ

В этой теме нет новых непрочитанных сообщений. Я люблю неприятности / I Love Trouble [Боевик, мелодрама, комедия, 1994] BDRip 720p, Dub+2Mvo+Dvo+3Avo+Sub

salma3

17 | 4

7.37 ГБ

В этой теме нет новых непрочитанных сообщений. Сплошные неприятности / Nothing But Trouble [комедия, 1991] WEB-DLRip, Dub+Avo

salma3

69 | 1

1.46 ГБ

В этой теме нет новых непрочитанных сообщений. Мужские хлопоты / Man Trouble [мелодрама, комедия, 1992] DVDRip, Avo

salma3

19 | 6

1.37 ГБ

В этой теме нет новых непрочитанных сообщений. Повторно не судят / Двойная опасность / Double Jeopardy [Триллер, 1992] DVDRip, Avo

salma3

57 | 10

1.46 ГБ


Начать новую тему Ответить на тему  [ 1 сообщение ] 




Для Мосгорсуда, Роскомнадзора и рекламодателей:: mosgorsud-torrent[собачка]yandex.ru