Торрент файл
скачать торрент магнет ссылка Добавлен: 20 ноя 2013, 20:06
Размер: 2.88 ГБ
Сидеров: 16
Личеров: 2
Статус: (salma3)
Автор

СообщениеДобавлено: 20 ноя 2013, 20:06 

Не в сети
Зам. Админа
Аватара пользователя
Дата регистрации:
02 дек 2010, 12:39
Спасибо: 12461 / 214
Сообщения: 27968
Год выхода: 2013
Жанр: драма
Режиссер: Калин Питер Нецер
В ролях: Луминица Георгиу, Богдан Думитраке, Наташа Рааб, Илинка Гойя, Флорин Замфиреску, Влад Иванов, Мими Брэнеску, Черасела Иосифеску, Адриан Титьени, Таня Попа, Истфан Александру

О фильме:
Мужчина по имени Барбу, одним мартовским вечером колесил на своем автомобиле, превышая при этом допустимую скорость. Неожиданно на огромной скорости он сбивает маленького ребенка. Мальчик умирает вскоре после аварии а Барбу ждет длительный срок лишения свободы. Но тут его мать, Корнелия, пытается отмазать сынка.



Выпущено: Румыния
Продолжительность: 01:47:32
Озвучивание: Любительское (двухголосое) [DeadSno & den904] -
перевод на русский язык [Серджиу Лосай]

Формат: MKV
Качество: HDTV 720p
Видео: 3180 kb/s, 1280x720
Аудио: Russian: AC3, 192 kb/s (2 ch) / Romanian: AC3, 384 kb/s (2 ch)
Субтитры: Russian [Серджиу Лосай], English, Romanian
Размер: 2.88 Gb

Скачать: Сэмпл



General
Childs.Pose.2013.HDTV.720p.CINEMANIA.mkv
Format : Matroska
Format version : Version 4 / Version 2
File size : 2.88 GiB
Duration : 1h 47mn
Overall bit rate : 3 832 Kbps
Movie name : Release Group CINEMANIA
Encoded date : UTC 2013-11-18 21:36:43
Writing application : mkvmerge v6.5.0 ('Isn't she lovely') built on Oct 20 2013 12:50:05
Writing library : libebml v1.3.0 + libmatroska v1.4.1

Video
ID : 1
Format : AVC
Format/Info : Advanced Video Codec
Format profile : High@L4.1
Format settings, CABAC : Yes
Format settings, ReFrames : 5 frames
Codec ID : V_MPEG4/ISO/AVC
Duration : 1h 47mn
Bit rate : 3 180 Kbps
Width : 1 280 pixels
Height : 720 pixels
Display aspect ratio : 16:9
Frame rate mode : Constant
Frame rate : 25.000 fps
Color space : YUV
Chroma subsampling : 4:2:0
Bit depth : 8 bits
Scan type : Progressive
Bits/(Pixel*Frame) : 0.138
Stream size : 2.39 GiB (83%)
Title : Release Group CINEMANIA
Writing library : x264 core 133 r2334 a3ac64b
Encoding settings : cabac=1 / ref=5 / deblock=1:0:0 / analyse=0x3:0x113 / me=umh / subme=8 / psy=1 / psy_rd=1.00:0.00 / mixed_ref=1 / me_range=16 / chroma_me=1 / trellis=1 / 8x8dct=1 / cqm=0 / deadzone=21,11 / fast_pskip=1 / chroma_qp_offset=-2 / threads=6 / lookahead_threads=1 / sliced_threads=0 / nr=0 / decimate=1 / interlaced=0 / bluray_compat=0 / constrained_intra=0 / bframes=3 / b_pyramid=2 / b_adapt=2 / b_bias=0 / direct=3 / weightb=1 / open_gop=0 / weightp=2 / keyint=250 / keyint_min=25 / scenecut=40 / intra_refresh=0 / rc_lookahead=50 / rc=crf / mbtree=1 / crf=18.0 / qcomp=0.60 / qpmin=0 / qpmax=69 / qpstep=4 / ip_ratio=1.40 / aq=1:1.00
Default : Yes
Forced : No

Audio #1
ID : 2
Format : AC-3
Format/Info : Audio Coding 3
Mode extension : CM (complete main)
Format settings, Endianness : Big
Codec ID : A_AC3
Duration : 1h 47mn
Bit rate mode : Constant
Bit rate : 192 Kbps
Channel(s) : 2 channels
Channel positions : Front: L R
Sampling rate : 48.0 KHz
Bit depth : 16 bits
Compression mode : Lossy
Stream size : 148 MiB (5%)
Title : DeadSno & den904
Language : Russian
Default : Yes
Forced : Yes

Audio #2
ID : 3
Format : AC-3
Format/Info : Audio Coding 3
Mode extension : CM (complete main)
Format settings, Endianness : Big
Codec ID : A_AC3
Duration : 1h 47mn
Bit rate mode : Constant
Bit rate : 384 Kbps
Channel(s) : 2 channels
Channel positions : Front: L R
Sampling rate : 48.0 KHz
Bit depth : 16 bits
Compression mode : Lossy
Delay relative to video : 8ms
Stream size : 295 MiB (10%)
Language : Romanian
Default : No
Forced : No

Text #1
ID : 4
Format : UTF-8
Codec ID : S_TEXT/UTF8
Codec ID/Info : UTF-8 Plain Text
Title : Серджиу Лосй
Language : Russian
Default : No
Forced : No

Text #2
ID : 5
Format : UTF-8
Codec ID : S_TEXT/UTF8
Codec ID/Info : UTF-8 Plain Text
Language : English
Default : No
Forced : No

Text #3
ID : 6
Format : UTF-8
Codec ID : S_TEXT/UTF8
Codec ID/Info : UTF-8 Plain Text
Language : Romanian
Default : No
Forced : No





реклама партнёра


Вернуться к началу
 Профиль  
 
   Похожие торренты   Автор   Торрент   Размер 
В этой теме нет новых непрочитанных сообщений. Дитя божье / Child of God [триллер, драма, криминал, 2013] BDRip 720p, Avo [Матвеев]

Dracon

54 | 6

4.55 ГБ

В этой теме нет новых непрочитанных сообщений. Scorpion Child - Scorpion Child [2013, Hard Rock, MP3]

PriZraK

2 | 2

128.46 МБ

В этой теме нет новых непрочитанных сообщений. Полицейская история 2014 / Jing Cha Gu Shi 2013 [боевик, триллер, драма, криминал, 2013] HDTV 720p, Dvo+Sub

salma3

196 | 6

1.95 ГБ

В этой теме нет новых непрочитанных сообщений. Челленджер / The Challenger [драма, 2013] HDTV 720p, Mvo

Dracon

477 | 7

2.21 ГБ

В этой теме нет новых непрочитанных сообщений. Дитя божье / Child of God [триллер, драма, криминал, 2013] HDRip, Avo

Dracon

546 | 16

1.46 ГБ

В этой теме нет новых непрочитанных сообщений. Конец убийствам / Zhi Sha / An End To Killing [боевик, исторический, драма, 2013] HDTV 720p, dvo

Dracon

186 | 319

4.51 ГБ

В этой теме нет новых непрочитанных сообщений. Вентворт / Wentworth [S01] [криминал, 2013] HDTV 720p,WEB-DL 720p,WEB-DL 1080p, mvo [BaibaKo]

Ανδρέας

27 | 32

14.02 ГБ


Начать новую тему Ответить на тему  [ 1 сообщение ] 




Для Мосгорсуда, Роскомнадзора и рекламодателей:: mosgorsud-torrent[собачка]yandex.ru