Торрент файл
скачать торрент магнет ссылка Добавлен: 20 ноя 2013, 19:56
Размер: 1.45 ГБ
Сидеров: 3
Личеров: 2
Статус: (salma3)
Автор

СообщениеДобавлено: 20 ноя 2013, 19:56 

Не в сети
Супермодератор
Аватара пользователя
Дата регистрации:
15 фев 2012, 16:44
Возраст: 27
Спасибо: 5139 / 2089
Сообщения: 17432
Кровавое письмо / Thien Menh Anh Hung

Год выхода: 2012
Жанр: боевик
Режиссер: Виктор Ву

В ролях: Хунь Донг, Миду, Ван Транг, Кхуонг Нгок, Минь Тхуан

О фильме:
На глазах ребенка солдаты убивают всю семью. Когда мальчик подрастает и узнает историю своей семьи, он желает только одного — мстить. Но кому? Однако вскоре он узнает о существовании некоего Кровавого письма, которое, возможно, поможет ему…



Страна: Вьетнам
Продолжительность: 01:43:08
Перевод: Профессиональный (двухголосый) [Нтв+]

Файл
Качество: HDRip
Формат файла: AVI
Видео кодек: XviD
Аудио кодек: AC3
Видео: 720x304, 1818 kbps, 24,000 fps, 0,346 Bits/(Pixel*Frame)
Звук: AC3, 48 kHz, 2 ch, 192 kbps

General
Complete name : G:Blood.Letter.2012.HDRip._by_Bathory.avi
Format : AVI
Format/Info : Audio Video Interleave
File size : 1.45 GiB
Duration : 1h 43mn
Overall bit rate : 2 019 Kbps
Writing application : VirtualDubMod 1.5.10.3 | http://www.virtualdub-fr.org || (build 2550/release)
Writing library : VirtualDubMod build 2550/release

Video
ID : 0
Format : MPEG-4 Visual
Format profile : Advanced Simple@L5
Format settings, BVOP : 1
Format settings, QPel : No
Format settings, GMC : No warppoints
Format settings, Matrix : Default (MPEG)
Codec ID : XVID
Codec ID/Hint : XviD
Duration : 1h 43mn
Bit rate : 1 818 Kbps
Width : 720 pixels
Height : 304 pixels
Display aspect ratio : 2.35:1
Frame rate : 24.000 fps
Color space : YUV
Chroma subsampling : 4:2:0
Bit depth : 8 bits
Scan type : Progressive
Compression mode : Lossy
Bits/(Pixel*Frame) : 0.346
Stream size : 1.31 GiB (90%)
Writing library : XviD 73

Audio
ID : 1
Format : AC-3
Format/Info : Audio Coding 3
Mode extension : CM (complete main)
Format settings, Endianness : Big
Codec ID : 2000
Duration : 1h 43mn
Bit rate mode : Constant
Bit rate : 192 Kbps
Channel count : 2 channels
Channel positions : Front: L R
Sampling rate : 48.0 KHz
Bit depth : 16 bits
Compression mode : Lossy
Stream size : 142 MiB (10%)
Alignment : Split accross interleaves
Interleave, duration : 42 ms (1.00 video frame)
Interleave, preload duration : 500 ms

Релиз от: и Автор рипа: _Bathory_


_________________



реклама партнёра


Вернуться к началу
 Профиль Отправить личное сообщение  
 
   Похожие торренты   Автор   Торрент   Размер 
В этой теме нет новых непрочитанных сообщений. Мятежник / The Rebel / Dong Mau Anh Hung (Чарли Нгуен / Charlie Nguyen) [2007г., Вьетнам, боевик, драма, мелодрама, HDRip] DVO + 2x VO

Alfredovich

5 | 3

2.52 ГБ

В этой теме нет новых непрочитанных сообщений. Кровавое сомбреро / Blood Sombrero [боевик, 2016] WEBDLRip, Dvo

salma3

50 | 3

1.39 ГБ

В этой теме нет новых непрочитанных сообщений. Богат И Знаменит 2 / Трагический Герой / Ying hung ho hon [боевик, драма, криминал, 1987] DVDRip, Avo

salma3

7 | 2

1.37 ГБ

В этой теме нет новых непрочитанных сообщений. Следующая полночь / Na yeh ling san, ngo joa seung liu Wong Gok hoi wong dai bou dik hung Van (Фрут Чан) [Фантастика, Триллер, Комедия, 2014] HDRip, dvo

Dracon

15 | 3

1.46 ГБ

В этой теме нет новых непрочитанных сообщений. Кровавое пристанище / Blood Shed [ужасы, 2014] WEB-DL 720p, dvo

Dracon

61 | 7

3.11 ГБ

В этой теме нет новых непрочитанных сообщений. Кровавое пристанище / Blood Shed [ужасы, 2014] WEB-DL 720p, Avo

salma3

2 | 4

2.98 ГБ

В этой теме нет новых непрочитанных сообщений. Кровавое озеро: Атака миног-убийц / Blood Lake: Attack of the Killer Lampreys [ужасы, 2014] HDTVRip, Dub

salma3

144 | 8

1.37 ГБ


Начать новую тему Ответить на тему  [ 1 сообщение ] 




Для Мосгорсуда, Роскомнадзора и рекламодателей:: mosgorsud-torrent[собачка]yandex.ru