Торрент файл
скачать торрент магнет ссылка Добавлен: 19 ноя 2013, 17:00
Размер: 1.31 ГБ
Сидеров: 19
Личеров: 2
Статус: (salma3)
Автор

СообщениеДобавлено: 19 ноя 2013, 17:00 

Не в сети
Супермодератор
Аватара пользователя
Дата регистрации:
15 фев 2012, 16:44
Возраст: 27
Спасибо: 5130 / 2089
Сообщения: 17372
Исповедь невидимки / Memoirs of an Invisible Man

Год выхода: 1992
Жанр: Фантастика, триллер, комедия, мелодрама
Режиссер: Джон Карпентер

В ролях: Чеви Чейз, Дэрил Ханна, Сэм Нилл, Майкл МакКин, Стивен Тоболовски, Джим Нортон, Пэт Скиппер, Пол Перри, Ричард Эпкар, Стив Барр

О фильме:
В результате взрыва в научной лаборатории главный герой фильма становится невидимым. Это переворачивает всю его жизнь; циничные сотрудники ЦРУ начинают охоту на него, однако с помощью очаровательной подружки ему удается выйти победителем из схватки с негодяями.



Страна: США, Франция
Продолжительность: 1:39:05
Перевод: Авторский (Одноголосый, закадровый) [А.Гаврилов]

Файл
Качество: DVDRip-AVC
Видео кодек: h.264
Аудио кодек: AC3
Видео: 720x368, 1700kbps, 23.976pfs, 0,268 pixel frame
Звук: AC3, 2ch, 192kbps

G:КомедииИсповедь Невидимки (1992) DVDRip-AVC Гаврилов.mkv
General
Unique ID : 251490433737363469241133900376599007741 (0xBD334BB36652EE7BBB6473A5C1BD91FD)
Complete name : G:КомедииИсповедь Невидимки (1992) DVDRip-AVC Гаврилов.mkv
Format : Matroska
Format version : Version 2
File size : 1.31 GiB
Duration : 1h 39mn
Overall bit rate : 1 894 Kbps
Encoded date : UTC 2011-07-24 12:21:37
Writing application : mkvmerge v3.3.0 ('Language') built on Mar 24 2010 14:59:24
Writing library : libebml v0.8.0 + libmatroska v0.9.0
Video #1
ID : 1
Format : AVC
Format/Info : Advanced Video Codec
Format profile : High@L3.0
Format settings, CABAC : Yes
Format settings, ReFrames : 5 frames
Codec ID : V_MPEG4/ISO/AVC
Duration : 1h 39mn
Bit rate : 1 700 Kbps
Width : 720 pixels
Height : 368 pixels
Display aspect ratio : 2.35:1
Original display aspect ratio : 2.35:1
Frame rate mode : Constant
Frame rate : 23.976 fps
Color space : YUV
Chroma subsampling : 4:2:0
Bit depth : 8 bits
Scan type : Progressive
Bits/(Pixel*Frame) : 0.268
Stream size : 1.15 GiB (88%)
Title : Исповедь Невидимки
Writing library : x264 core 85 r1442 781d300
Encoding settings : cabac=1 / ref=5 / deblock=1:-1:-1 / analyse=0x3:0x133 / me=umh / subme=7 / psy=1 / psy_rd=1.00:0.20 / mixed_ref=1 / me_range=16 / chroma_me=1 / trellis=2 / 8x8dct=1 / cqm=0 / deadzone=21,11 / fast_pskip=0 / chroma_qp_offset=-3 / threads=6 / sliced_threads=0 / nr=0 / decimate=0 / mbaff=0 / constrained_intra=0 / bframes=3 / b_pyramid=0 / b_adapt=2 / b_bias=0 / direct=3 / wpredb=1 / wpredp=2 / keyint=250 / keyint_min=25 / scenecut=40 / intra_refresh=0 / rc_lookahead=50 / rc=2pass / mbtree=1 / bitrate=1700 / ratetol=1.0 / qcomp=0.60 / qpmin=10 / qpmax=51 / qpstep=4 / cplxblur=20.0 / qblur=0.5 / ip_ratio=1.40 / aq=1:1.00
Language : English
Default : Yes
Forced : No
Audio #2
ID : 2
Format : AC-3
Format/Info : Audio Coding 3
Format profile : Dolby Digital
Mode extension : CM (complete main)
Format settings, Endianness : Big
Codec ID : A_AC3
Duration : 1h 39mn
Bit rate mode : Constant
Bit rate : 192 Kbps
Channel(s) : 2 channels
Channel positions : Front: L R
Sampling rate : 48.0 KHz
Bit depth : 16 bits
Compression mode : Lossy
Delay relative to video : 16ms
Stream size : 136 MiB (10%)
Title : Одноголосный
Language : Russian
Default : No
Forced : No


_________________



реклама партнёра


Вернуться к началу
 Профиль Отправить личное сообщение  
 
   Похожие торренты   Автор   Торрент   Размер 
В этой теме нет новых непрочитанных сообщений. Невидимки (Сергей Комаров) [комедия, фантастика, 2013] WEB-DLRip

Dracon

12 | 4

699.51 МБ

В этой теме нет новых непрочитанных сообщений. Невидимки (Сергей Комаров) [комедия, фантастика, 2013] WEB-DLRip

Dracon

31 | 4

1.37 ГБ

В этой теме нет новых непрочитанных сообщений. Невидимки (Сергей Комаров) [комедия, фантастика, 2013] WEB-DL 720p

Dracon

17 | 4

2.79 ГБ

В этой теме нет новых непрочитанных сообщений. Больше денег / Mo Money [триллер, мелодрама, комедия, 1992] HDTVRip, Mvo

salma3

6 | 3

1.45 ГБ

В этой теме нет новых непрочитанных сообщений. Замечательная поездка / Timescape [фантастика, триллер, драма, 1992] DVDRip, Dvo

salma3

73 | 10

1.43 ГБ

В этой теме нет новых непрочитанных сообщений. Исповедь мойщика окон / Confessions of a Window Cleaner (Вэл Гест) [1974 г., Комедия, эротика, DVDRip 400p]

Max79

4 | 7

1.45 ГБ

В этой теме нет новых непрочитанных сообщений. Мужские хлопоты / Man Trouble [мелодрама, комедия, 1992] DVDRip, Avo

salma3

19 | 6

1.37 ГБ


Начать новую тему Ответить на тему  [ 1 сообщение ] 




Для Мосгорсуда, Роскомнадзора и рекламодателей:: mosgorsud-torrent[собачка]yandex.ru