Торрент файл
скачать торрент магнет ссылка Добавлен: 19 ноя 2013, 16:39
Размер: 1.46 ГБ
Сидеров: 84
Личеров: 4
Статус: (salma3)
Автор

СообщениеДобавлено: 19 ноя 2013, 16:39 

В сети
Супермодератор
Аватара пользователя
Дата регистрации:
15 фев 2012, 16:44
Возраст: 27
Спасибо: 5143 / 2090
Сообщения: 17513
Пережить Рождество / Surviving Christmas

Год выпуска: 2004
Жанр: мелодрама, комедия
Режиссер: Майк Митчелл

В ролях: Бен Аффлек, Джеймс Гандольфини, Кристина Эпплгейт, Кэтрин О’Хара, Джош Цуккерман, Билл Мэйси, Дженнифер Моррисон, Удо Кир, Дэвид Селби, Стефани Фэраси

Описание: Опостылевшая рутинная жизнь богача Дрю Лэтама приводит его на Рождество в пригородный дом своего детства. И даже тот факт, что дом заселён теперь другими людьми, не может испортить Дрю настроение. За солидное вознаграждение он предлагает семейке Валко на время стать его роднёй, и сам мечтает отметить праздник в их кругу. Вот только деньги кружат голову далеко не всем его новым родственникам, да и сами Валко, кажется, представляют собой редкую семейку психопатов…

Доп. информация: Фильм снимался без полноценного сценария, и на площадке постоянно кипели споры о том, как должен выглядеть тот или другой фрагмент. Поэтому большая часть картины — актерские импровизации.
Рабочим названием ленты было «The Twelve Days of Christmas» (12 Рождественских дней).



Страна: США
Продолжительность: 01:30:54
Перевод: Профессиональный (дублированный)

Качество: HDRip [BDRip 720p]
Формат: AVI
Видео кодек: XviD
Аудио кодек: AC3
Видео: 704x400 (1.76:1), 23.976 fps, XviD build 50 ~1909 kbps avg, 0.28 bit/pixel
Аудио: 48 kHz, AC3 Dolby Digital, 3/2 (L,C,R,l,r) + LFE ch, ~384 kbps



D:Мои рипыSurviving.Christmas.2004.HDRip.dexter_lex.avi
General
Complete name : D:Мои рипыSurviving.Christmas.2004.HDRip.dexter_lex.avi
Format : AVI
Format/Info : Audio Video Interleave
File size : 1.46 GiB
Duration : 1h 30mn
Overall bit rate : 2 301 Kbps
Writing application : VirtualDubMod 1.5.10.3 | http://www.virtualdub-fr.org || (build 2550/release)
Writing library : VirtualDubMod build 2550/release
Video #0
ID : 0
Format : MPEG-4 Visual
Format profile : Advanced Simple@L5
Format settings, BVOP : 1
Format settings, QPel : No
Format settings, GMC : No warppoints
Format settings, Matrix : Custom
Codec ID : XVID
Codec ID/Hint : XviD
Duration : 1h 30mn
Bit rate : 1 909 Kbps
Width : 704 pixels
Height : 400 pixels
Display aspect ratio : 16:9
Frame rate : 23.976 fps
Color space : YUV
Chroma subsampling : 4:2:0
Bit depth : 8 bits
Scan type : Progressive
Compression mode : Lossy
Bits/(Pixel*Frame) : 0.283
Stream size : 1.21 GiB (83%)
Writing library : XviD 1.2.1 (UTC 2008-12-04)
Audio #1
ID : 1
Format : AC-3
Format/Info : Audio Coding 3
Mode extension : CM (complete main)
Codec ID : 2000
Duration : 1h 30mn
Bit rate mode : Constant
Bit rate : 384 Kbps
Channel(s) : 6 channels
Channel positions : Front: L C R, Side: L R, LFE
Sampling rate : 48.0 KHz
Bit depth : 16 bits
Compression mode : Lossy
Stream size : 249 MiB (17%)
Alignment : Split accross interleaves
Interleave, duration : 42 ms (1.00 video frame)
Interleave, preload duration : 500 ms

Раздача от:


_________________



реклама партнёра


Вернуться к началу
 Профиль Отправить личное сообщение  
 
   Похожие торренты   Автор   Торрент   Размер 
В этой теме нет новых непрочитанных сообщений. Пережить Рождество / Surviving Christmas [Мелодрама, комедия, 2004] BDRip 720p, Dub+Mvo

salma3

60 | 6

4.37 ГБ

В этой теме нет новых непрочитанных сообщений. Пережить Рождество / Surviving Christmas [комедия, мелодрама, 2004] BDRip 1080p, Dub+Dvo+2Avo+Sub

salma3

10 | 2

12 ГБ

В этой теме нет новых непрочитанных сообщений. Вот и Рождество / So This Is Christmas [драма, мелодрама, комедия, семейный, 2013] HDRip, Mvo

salma3

27 | 1

1.36 ГБ

В этой теме нет новых непрочитанных сообщений. Рождество / This Christmas [Комедия, драма, 2007] HDRip-AVC, Mvo+Sub

salma3

13 | 2

2.79 ГБ

В этой теме нет новых непрочитанных сообщений. Как раз под Рождество / Just in Time for Christmas [Комедия, мелодрама, 2015] WEB-DLRip, Mvo [iTunes]

salma3

1057 | 114

1.46 ГБ

В этой теме нет новых непрочитанных сообщений. Свадьба на Рождество / A Christmas Wedding [Мелодрама,Комедия, 2006] DVDRip, Mvo

salma3

0 | 2

1.37 ГБ

В этой теме нет новых непрочитанных сообщений. Как раз под Рождество / Just in Time for Christmas [Комедия, мелодрама, 2015] WEB-DL 720p, Mvo [iTunes]

salma3

385 | 153

3.27 ГБ


Начать новую тему Ответить на тему  [ 1 сообщение ] 




Для Мосгорсуда, Роскомнадзора и рекламодателей:: mosgorsud-torrent[собачка]yandex.ru
cron