Торрент файл
скачать торрент магнет ссылка Добавлен: 16 ноя 2013, 17:58
Размер: 1.79 ГБ
Сидеров: 15
Личеров: 3
Статус: (salma3)
Автор

СообщениеДобавлено: 16 ноя 2013, 17:58 

Не в сети
Супермодератор
Аватара пользователя
Дата регистрации:
15 фев 2012, 16:44
Возраст: 27
Спасибо: 5121 / 2089
Сообщения: 17296
Стерлось из памяти / Девственно чистая память / Clean Slate

Год выхода: 1994
Жанр: Комедия, Детектив
Режиссер: Мик Джексон

В ролях: Дэна Карви, Валерия Голино, Джеймс Эрл Джонс, Кевин Поллак, Майкл Гэмбон, Майкл Мерфи, Джейн Брук, Вито Руджинис, Оливия д’Або, Анджела Пэтон

О фильме:
Бывший полицейский, а ныне частный детектив, потерял память и каждое утро вынужден прослушивать свои записи на диктофоне, чтобы вспомнить предыдущее. Из-за амнезии он постоянно попадает в нелепые ситуации с коллегами, бандитами, женщинами.

В довершение ко всему начинает понимать, что замешан в какой-то афере, грозящей крупными неприятностями. Но в момент кульминации память возвращается к нему, а с ней приходят богатство и любовь.



Страна: США
Продолжительность: 1:47:03
Перевод: Авторский (Одноголосый, закадровый) [А.Михалев]
Оригинал (Английский)

Файл
Качество: DVDRip
Формат файла: AVI
Видео кодек: XviD
Аудио кодек: AC3
Качество: DVDRip
Видео: 720x416, 1966kbps, 23.976fps, 0,274 Pixel frame
Audio1: AC3, 2ch, 192kbps [А.Михалев]
Audio2: AC3, 2ch, 192kbps [Английский]

Девственно чистая память (1994) DVDRip Михалев, Английский.avi
General
Unique ID : 174128356806854025798822097858132148029 (0x82FFE6D2CE09ADDCB596061681EB7F3D)
Complete name : Девственно чистая память (1994) DVDRip Михалев, Английский.avi
Format : Matroska
Format version : Version 2
File size : 1.79 GiB
Duration : 1h 47mn
Overall bit rate : 2 398 Kbps
Encoded date : UTC 2011-07-24 12:09:49
Writing application : mkvmerge v3.3.0 ('Language') built on Mar 24 2010 14:59:24
Writing library : libebml v0.8.0 + libmatroska v0.9.0
Video #1
ID : 1
Format : MPEG-4 Visual
Format profile : Advanced Simple@L5
Format settings, BVOP : Yes
Format settings, QPel : No
Format settings, GMC : No warppoints
Format settings, Matrix : Custom
Codec ID : V_MS/VFW/FOURCC / XVID
Codec ID/Hint : XviD
Duration : 1h 47mn
Bit rate : 1 966 Kbps
Width : 720 pixels
Height : 416 pixels
Display aspect ratio : 1.731
Frame rate mode : Constant
Frame rate : 23.976 fps
Color space : YUV
Chroma subsampling : 4:2:0
Bit depth : 8 bits
Scan type : Progressive
Compression mode : Lossy
Bits/(Pixel*Frame) : 0.274
Stream size : 1.47 GiB (82%)
Writing library : XviD 1.2.0.dev47 (UTC 2006-11-01)
Default : Yes
Forced : No
Audio #2
ID : 2
Format : AC-3
Format/Info : Audio Coding 3
Mode extension : CM (complete main)
Format settings, Endianness : Big
Codec ID : A_AC3
Duration : 1h 47mn
Bit rate mode : Constant
Bit rate : 192 Kbps
Channel(s) : 2 channels
Channel positions : Front: L R
Sampling rate : 48.0 KHz
Bit depth : 16 bits
Compression mode : Lossy
Stream size : 147 MiB (8%)
Default : Yes
Forced : No
Audio #3
ID : 3
Format : AC-3
Format/Info : Audio Coding 3
Format profile : Dolby Digital
Mode extension : CM (complete main)
Format settings, Endianness : Big
Codec ID : A_AC3
Duration : 1h 47mn
Bit rate mode : Constant
Bit rate : 192 Kbps
Channel(s) : 2 channels
Channel positions : Front: L R
Sampling rate : 48.0 KHz
Bit depth : 16 bits
Compression mode : Lossy
Stream size : 147 MiB (8%)
Default : No
Forced : No


_________________



реклама партнёра


Вернуться к началу
 Профиль Отправить личное сообщение  
 
   Похожие торренты   Автор   Торрент   Размер 
В этой теме нет новых непрочитанных сообщений. Обманчивая память / Solitary [детектив, 2009] HDTVRip, Mvo

salma3

56 | 9

1.42 ГБ

В этой теме нет новых непрочитанных сообщений. Принцесса Карабу / Princess Caraboo [Драма, мелодрама, комедия, детектив, 1994] DVDRip, Mvo

salma3

23 | 5

1.45 ГБ

В этой теме нет новых непрочитанных сообщений. Шерлок Бонд: Пес-детектив / Sherlock: Undercover Dog [комедия, приключения, семейный, 1994] DVDRip, Mvo

salma3

5 | 5

677.07 МБ

В этой теме нет новых непрочитанных сообщений. Река памяти [Детектив, мелодрама, 2016] WEB-DLRip

salma3

633 | 23

1.37 ГБ

В этой теме нет новых непрочитанных сообщений. Река памяти (Детектив, мелодрама, 2016) WEB-DLRip от MegaPeer

marya111

123 | 8

745.39 МБ

В этой теме нет новых непрочитанных сообщений. Eva Lovia / Evas Deep Clean (2015) HD 720p

Dile-1

9 | 5

440.97 МБ

В этой теме нет новых непрочитанных сообщений. What's Left Of Nowhere - With Clean Hands [2014, Metalcore, Male & Female Vocals, MP3]

PriZraK

0 | 1

97.88 МБ


Начать новую тему Ответить на тему  [ 1 сообщение ] 




Для Мосгорсуда, Роскомнадзора и рекламодателей:: mosgorsud-torrent[собачка]yandex.ru