Торрент файл
скачать торрент магнет ссылка Добавлен: 16 ноя 2013, 14:22
Размер: 690.31 МБ
Сидеров: 2
Личеров: 2
Статус: (salma3)
Автор

СообщениеДобавлено: 16 ноя 2013, 14:22 

В сети
Супермодератор
Аватара пользователя
Дата регистрации:
15 фев 2012, 16:44
Возраст: 27
Спасибо: 5130 / 2089
Сообщения: 17365
Врата безмолвия / Porte del silenzio, Le

Год выпуска: 1991
Жанр: триллер
Режиссер: Лучио Фульчи / Lucio Fulci

В ролях: Джон Сэвэдж, Сэнди Шульц, Ричард Кастлман, Дженнифер Лоб, Элизабет Чагден, Джо «Кул» Дэвис, Боб Шревс, Мэри Колсон, Фред Льюис, Морин Рокин

Описание:
Преуспевающий бизнесмен Мелвин Деверо по пути домой останавливается поглазеть на похороны и знакомится с таинственной женщиной, которая в дальнейшем начнет постоянно попадаться ему на глаза. На вопросы о ее имени и о причине их навязчивых встреч она ничего ему не отвечает, а потом и вовсе исчезает. Вскоре Мелвин встречает на дороге катафалк с гробом, на котором написано его имя…



Страна: Италия
Продолжительность: 01:26:53
Перевод: Профессиональный (многоголосый, закадровый)

Файл
Качество: DVDRip
Формат файла: AVI
Видео кодек: XviD
Аудио кодек: MP3
Видео: 704x528 (1.33:1), 25 fps, DivX Codec 6.7 ~975 kbps avg, 0.11 bit/pixel
Аудио: Русский: 48 kHz, MPEG Layer 3, 2 ch, ~128.00 kbps avg











General
Complete name : E:\Фильмы\Врата безмолвия.1991.DVDRip.MVO.[tfile.ru].avi
Format : AVI
Format/Info : Audio Video Interleave
File size : 690 MiB
Duration : 1h 26mn
Overall bit rate : 1 111 Kbps
Movie name : Porte del silenzio, Le
Director : Diablo
Writing application : VirtualDubMod 1.5.4.1 (build 2178/release)VirtualDubMod build 2178/release
Copyright : для портала http://www.uralmix.ru

Video
ID : 0
Format : MPEG-4 Visual
Format settings, BVOP : 1
Format settings, QPel : No
Format settings, GMC : No warppoints
Format settings, Matrix : Default (H.263)
Muxing mode : Packed bitstream
Codec ID : DX50
Codec ID/Hint : DivX 5
Duration : 1h 26mn
Bit rate : 975 Kbps
Width : 704 pixels
Height : 528 pixels
Display aspect ratio : 4:3
Frame rate : 25.000 fps
Color space : YUV
Chroma subsampling : 4:2:0
Bit depth : 8 bits
Scan type : Progressive
Compression mode : Lossy
Bits/(Pixel*Frame) : 0.105
Stream size : 606 MiB (88%)
Writing library : DivX 6.7.0 (UTC 2007-09-20)

Audio
ID : 1
Format : MPEG Audio
Format version : Version 1
Format profile : Layer 3
Mode : Joint stereo
Mode extension : MS Stereo
Codec ID : 55
Codec ID/Hint : MP3
Duration : 1h 26mn
Bit rate mode : Constant
Bit rate : 128 Kbps
Channel(s) : 2 channels
Sampling rate : 48.0 KHz
Compression mode : Lossy
Stream size : 79.6 MiB (12%)
Alignment : Aligned on interleaves
Interleave, duration : 80 ms (2.00 video frames)
Interleave, preload duration : 504 ms
Writing library : LAME3.97
Encoding settings : -m j -V 4 -q 2 -lowpass 17 -b 128
Language : 5 / @5 / Russian


_________________



реклама партнёра


Вернуться к началу
 Профиль Отправить личное сообщение  
 
   Похожие торренты   Автор   Торрент   Размер 
В этой теме нет новых непрочитанных сообщений. Врата ада / The Doorway [ужасы, триллер, 2000] DVDRip, Avo

salma3

47 | 9

1.46 ГБ

В этой теме нет новых непрочитанных сообщений. Le Porte Non Aperte – Golem [2013, Retro Progressive Rock, MP3]

PriZraK

0 | 1

155.8 МБ

В этой теме нет новых непрочитанных сообщений. La Maschera Di Cera - Le Porte Del Domani (Boxset Limited Two Versions) [2013, Progressive Rock, MP3]

PriZraK

0 | 1

208.68 МБ

В этой теме нет новых непрочитанных сообщений. Ножницы / Scissors [триллер, драма, 1991] DVDRip, Mvo

salma3

9 | 4

744.05 МБ

В этой теме нет новых непрочитанных сообщений. Беспощадная охота / Hunting [драма, триллер, 1991] DVDRip, Dvo

salma3

3 | 0

1.37 ГБ

В этой теме нет новых непрочитанных сообщений. Беги / Run [триллер, криминал, боевик, драма, 1991] DVDRip, Dvo

salma3

6 | 4

1.37 ГБ

В этой теме нет новых непрочитанных сообщений. Умереть заново / Dead Again [триллер, детектив, 1991] DVDRip, Mvo

salma3

5 | 2

746.71 МБ


Начать новую тему Ответить на тему  [ 1 сообщение ] 




Для Мосгорсуда, Роскомнадзора и рекламодателей:: mosgorsud-torrent[собачка]yandex.ru