Торрент файл
скачать торрент магнет ссылка Добавлен: 16 ноя 2013, 11:38
Размер: 1.46 ГБ
Сидеров: 291
Личеров: 11
Статус: (salma3)
Автор

СообщениеДобавлено: 16 ноя 2013, 11:38 

Не в сети
Зам. Админа
Аватара пользователя
Дата регистрации:
02 дек 2010, 12:39
Спасибо: 12623 / 214
Сообщения: 28012
Страна: США, Франция
Жанр: Комедия, криминал
Год выпуска: 2013
Продолжительность: 01:46:56
Перевод: Профессиональный (дублированный) [Лицензия]
Cубтитры: нет
Режиссер: Люк Бессон / Luc Besson
В ролях: Роберт Де Ниро, Мишель Пфайффер, Томми Ли Джонс, Дианна Агрон, Джон Фреда, Рикардо Сорберо, Доминик Кьянезе, Дэвид Белль, Джон Д’Лео, Джино Кафарелли

Описание: На тихой улочке провинциального французского городка поселился писатель по фамилии Блейк, со своим семейством и собакой Малавитой. На этом многовековое спокойствие города закончилось. Почему сгорел местный супермаркет? Чем рискует медлительный водопроводчик? Что лежит в рюкзаке у милого парня в бежевых бриджах? Никто и представить себе не мог, что на самом деле мистер Блейк — бывший глава мафии, которого власти прячут здесь от преследования. И вот в городок приезжают люди «Коза Ностры»…

Семпл

Качество видео: DVDRip-AVC
Формат видео: MKV
Видео: 1024x424, 25 fps, ~1563 kbps avg, 0.150 bit/pixel
Аудио: 48 kHz, AC3 Dolby Digital, 3/2 (L,C,R,l,r) + LFE ch, ~384.00 kbps avg

Общее
Уникальный идентификатор : 216071028251461874765993660651316687293 (0xA28DC42F0406C825A7E4AC05AE17B1BD)
Полное имя : D:Malavuta.2013.DVDRip-AVC.By_Flash.mkv
Формат : Matroska
Версия формата : Version 2
Размер файла : 1,46 Гбайт
Продолжительность : 1 ч. 46 м.
Общий поток : 1948 Кбит/сек
Дата кодирования : UTC 2013-11-16 06:27:56
Программа кодирования : mkvmerge v6.1.0 ('Old Devil') built on Mar 4 2013 09:10:42
Библиотека кодирования : libebml v1.3.0 + libmatroska v1.4.0
Видео
Идентификатор : 1
Формат : AVC
Формат/Информация : Advanced Video Codec
Профиль формата : High@L4.1
Параметр CABAC формата : Да
Параметр ReFrames формата : 6 кадров
Идентификатор кодека : V_MPEG4/ISO/AVC
Продолжительность : 1 ч. 46 м.
Битрейт : 1563 Кбит/сек
Ширина : 1024 пикселя
Высота : 424 пикселя
Соотношение сторон : 2,40:1
Режим частоты кадров : Постоянный
Частота кадров : 25,000 кадров/сек
Цветовое пространство : YUV
Субдискретизация насыщенности : 4:2:0
Битовая глубина : 8 бит
Тип развёртки : Прогрессивная
Бит/(Пиксели*Кадры) : 0.144
Размер потока : 1,14 Гбайт (78%)
Библиотека кодирования : x264 core 130 r2273 b3065e6
Настройки программы : cabac=1 / ref=6 / deblock=1:-2:-1 / analyse=0x3:0x113 / me=umh / subme=10 / psy=1 / psy_rd=1.00:0.05 / mixed_ref=1 / me_range=32 / chroma_me=1 / trellis=2 / 8x8dct=1 / cqm=0 / deadzone=21,11 / fast_pskip=0 / chroma_qp_offset=-3 / threads=6 / lookahead_threads=1 / sliced_threads=0 / nr=0 / decimate=0 / interlaced=0 / bluray_compat=0 / constrained_intra=0 / bframes=8 / b_pyramid=2 / b_adapt=2 / b_bias=0 / direct=3 / weightb=1 / open_gop=0 / weightp=2 / keyint=250 / keyint_min=25 / scenecut=40 / intra_refresh=0 / rc=2pass / mbtree=0 / bitrate=1563 / ratetol=1.0 / qcomp=0.60 / qpmin=0 / qpmax=69 / qpstep=4 / cplxblur=20.0 / qblur=0.5 / ip_ratio=1.40 / pb_ratio=1.30 / aq=1:1.00
Default : Да
Forced : Нет
Аудио
Идентификатор : 2
Формат : AC-3
Формат/Информация : Audio Coding 3
Расширение режима : CM (complete main)
Параметр Endianness формата : Big
Идентификатор кодека : A_AC3
Продолжительность : 1 ч. 46 м.
Вид битрейта : Постоянный
Битрейт : 384 Кбит/сек
Каналы : 6 каналов
Расположение каналов : Front: L C R, Side: L R, LFE
Частота : 48,0 КГц
Битовая глубина : 16 бит
Метод сжатия : С потерями
Размер потока : 294 Мбайт (20%)
Default : Да
Forced : Нет







реклама партнёра


Вернуться к началу
 Профиль  
 
   Похожие торренты   Автор   Торрент   Размер 
В этой теме нет новых непрочитанных сообщений. Семейное ограбление / Family Heist / Mes trésors [комедия, 2017] BDRip, Dub [Лицензия]

salma3

2686 | 342

1.46 ГБ

В этой теме нет новых непрочитанных сообщений. Погнали! / Getaway [боевик, криминал, 2013] BDRip 1080p, Mvo [Лицензия]

salma3

0 | 42

6.65 ГБ

В этой теме нет новых непрочитанных сообщений. Семейное ограбление / Family Heist / Mes trésors [комедия, 2017] BDRip 720p, Dub [Лицензия]

salma3

875 | 216

2.94 ГБ

В этой теме нет новых непрочитанных сообщений. Семейное ограбление / Family Heist / Mes trésors [комедия, 2017] BDRip 1080p, Dub [Лицензия]

salma3

327 | 213

6.49 ГБ

В этой теме нет новых непрочитанных сообщений. MILFS...Keeping It In The Family (Vincent Voss, Cal Vista (Metro)) [2015 г., All Sex, Family Roleplay, Mature, MILF, DVDRip]

salma3

18 | 6

1.16 ГБ

В этой теме нет новых непрочитанных сообщений. Семейный заговор / Family Plot [Триллер, комедия, криминал, 1976] IPTVRip, Mvo

salma3

3 | 1

1.49 ГБ

В этой теме нет новых непрочитанных сообщений. Семейный заговор / Family Plot [Триллер, комедия, криминал, 1976] BDRemux 1080p, Dub

salma3

8 | 7

32.8 ГБ


Начать новую тему Ответить на тему  [ 1 сообщение ] 




Для Мосгорсуда, Роскомнадзора и рекламодателей:: mosgorsud-torrent[собачка]yandex.ru