Торрент файл
скачать торрент магнет ссылка Добавлен: 15 ноя 2013, 01:03
Размер: 2.91 ГБ
Сидеров: 13
Личеров: 3
Статус: (salma3)
Автор

СообщениеДобавлено: 15 ноя 2013, 01:03 

В сети
Супермодератор
Аватара пользователя
Дата регистрации:
15 фев 2012, 16:44
Возраст: 27
Спасибо: 5130 / 2089
Сообщения: 17365
Парни что надо / The Right Stuff

Год выхода: 1983
Жанр: Фантастика, драма, приключения, история
Режиссер: Филип Кауфман

В ролях: Сэм Шепард, Скотт Гленн, Эд Харрис, Дэннис Куэйд, Фред Уорд, Барбара Хёрши, Ким Стэнли, Вероника Картрайт, Памела Рид, Скотт Полин, Чарльз Фрэнк, Лэнс Хенриксен, Дональд Моффет, Левон Хельм, Мэри Джо Дешанель, Скотт Уилсон, Кэти Бэйкер, Мики Крокер, Сьюзэн Касэ, Митти Смит, Ройал Дэно, Дэвид Кленнон, Джим Хейни, Джефф Голдблюм, Гарри Ширер, Скотт Бич, Джейн Дорнакер, Энтони Муноз, Джон П. Райан, Дэррил Энрикес

О фильме:
Экранизация бестселлера Тома Вулфа. 1953 год. Карибское море… Реактивный самолет взлетает с борта авианосца, он просто исчезает в небе. Приборы фиксируют: он перешел границу скорости звука… Эта картина — фрагментарная история американской астронавтики с 1947 по 1963 год, когда после долгих и трагических испытаний, американцы наконец вышли в космос.



Страна: США / The Ladd Company, Colossal Pictures, USFX, Warner Bros.
Продолжительность: 03:12:44
Перевод: Профессиональный [двухголосый]

Файл
Качество: BDRip
Формат файла: AVI
Видео кодек: XviD
Аудио кодек: AC3
Видео: XviD, 1954 Кбит/с, 720x400
Звук: Русский (AC3, 2 ch, 192 Кбит/с)

Семпл

Format : AVI
Format/Info : Audio Video Interleave
Format profile : OpenDML
File size : 2.91 GiB
Duration : 3h 12mn
Overall bit rate : 2 159 Kbps
Movie name : The.Right.Stuff.1983.XviD.BDRip.-MediaClub
Director : -=MediaClub - Odessit=-
Writing application : VirtualDubMod 1.5.10.3 (build 2550/release)
Writing library : VirtualDubMod build 2550/release

Video
ID : 0
Format : MPEG-4 Visual
Format profile : Advanced Simple@L5
Format settings, BVOP : 1
Format settings, QPel : No
Format settings, GMC : No warppoints
Format settings, Matrix : Custom
Codec ID : XVID
Codec ID/Hint : XviD
Duration : 3h 12mn
Bit rate : 1 956 Kbps
Width : 720 pixels
Height : 400 pixels
Display aspect ratio : 16:9
Frame rate : 23.976 fps
Color space : YUV
Chroma subsampling : 4:2:0
Bit depth : 8 bits
Scan type : Progressive
Compression mode : Lossy
Bits/(Pixel*Frame) : 0.283
Stream size : 2.63 GiB (91%)
Writing library : XviD 73

Audio
ID : 1
Format : AC-3
Format/Info : Audio Coding 3
Mode extension : CM (complete main)
Codec ID : 2000
Duration : 3h 12mn
Bit rate mode : Constant
Bit rate : 192 Kbps
Channel(s) : 2 channels
Channel positions : Front: L R
Sampling rate : 48.0 KHz
Bit depth : 16 bits
Compression mode : Lossy
Stream size : 265 MiB (9%)
Alignment : Split accross interleaves
Interleave, duration : 42 ms (1.00 video frame)
Interleave, preload duration : 500 ms



Релиз от: |


_________________



реклама партнёра


Вернуться к началу
 Профиль Отправить личное сообщение  
 
   Похожие торренты   Автор   Торрент   Размер 
В этой теме нет новых непрочитанных сообщений. Вкусная дрянь / The Stuff [ужасы, фантастика, комедия, 1985] BDRip 720p, Dub+Avo+Sub

salma3

38 | 4

7.39 ГБ

В этой теме нет новых непрочитанных сообщений. Черные тигры / Хорошие парни носят черное / Крутые парни ходят в черном / Good Guys Wear Black [боевик, 1978] BDRip, Mvo

salma3

0 | 1

1.46 ГБ

В этой теме нет новых непрочитанных сообщений. Африканец / L'Africain [Приключения, 1983] BDRip 1080p, Dub+2Mvo+Sub

salma3

28 | 6

9.47 ГБ

В этой теме нет новых непрочитанных сообщений. Парни со стволами / War Dogs [драма, комедия, военный, 2016] BDRip, Dub [лицензия]

salma3

102 | 10

1.46 ГБ

В этой теме нет новых непрочитанных сообщений. Парни со стволами / War Dogs [драма, комедия, военный, 2016] BDRip-AVC, Dub [лицензия]

salma3

685 | 113

2.18 ГБ

В этой теме нет новых непрочитанных сообщений. Ловчий смерти / Deathstalker [Фэнтези, приключения, 1983] BDRip 1080p, Dvo+Avo+Sub

salma3

23 | 5

8.28 ГБ

В этой теме нет новых непрочитанных сообщений. Африканец / L'Africain [Приключения, комедия, 1983] BDRip 720p, Dub+2Mvo+Sub

salma3

31 | 5

7.28 ГБ


Начать новую тему Ответить на тему  [ 1 сообщение ] 




Для Мосгорсуда, Роскомнадзора и рекламодателей:: mosgorsud-torrent[собачка]yandex.ru